Скачать через торрент музыку Бэтмен навсегда Batman Forever - 1995, FLAC бесплатно без регистрации torrent

Если у вас наблюдаются проблемы со скриншотами, переходом по ссылками, скачиванием торрентов - проблемы в блокировщике рекламы AdBlock. #хорошегоДня!


Статистика раздачи
Размер:  387 MB   |    Зарегистрирован:  6 лет   |    .torrent скачан:  73 раза   |   
Раздают:  1  
   
Загрузка...
 
Автор Сообщение

Galfimbul

avatar Galfimbul


Бэтмен навсегда / Batman Forever

Жанр: Soundtrack
Страна-производитель диска: USA
Год выпуска диска: 1995
Аудиокодек: FLAC (*.flac)
Тип рипа: tracks+.cue
Битрейт аудио: lossless
Продолжительность: 00:59:28
Источник: web

Треклист:
01. U2 - Hold Me, Thrill Me, Kiss Me, Kill Me
02. PJ Harvey - One Time Too Many
03. Brandy - Where Are You Now?
04. Seal - Kiss From A Rose
05. Massive Attack with Tracey Thorn - The Hunter Gets Captured By The Game
06. Eddi Reader - Nobody Lives Without Love
07. Mazzy Star - Tell Me Now
08. The Offspring - Smash It Up
09. Nick Cave - There Is A Light
10. Method Man - The Riddler
11. Michael Hutchence - The Passenger
12. The Devlins - Crossing The River
13. Sunny Day Real Estate - 8
14. The Flaming Lips - Bad Days
 
EAC extraction logfile from 11. September 2006, 23:06 for CDVarious / Batman Forever

Used drive : LITE-ON DVDRW SOHW-812S Adapter: 1 ID: 0Read mode : Secure with NO C2, accurate stream, disable cacheRead offset correction : 12Overread into Lead-In and Lead-Out : No

Used output format : C:\Program Files\FLAC\flac.exe (User Defined Encoder) 128 kBit/s Additional command line options : -V -8 -T "artist=%a" -T "title=%t" -T "album=%g" -T "date=%y" -T "tracknumber=%n" -T "genre=%m" %s

Other options : Fill up missing offset samples with silence : Yes Delete leading and trailing silent blocks : No Native Win32 interface for Win NT & 2000

Track 1 Filename G:\Oink Uploads\Batman Forever Soundtrack\01 - Hold Me, Thrill Me, Kiss Me, Kill Me.wav

Pre-gap length 0:00:02.44

Peak level 93.5 % Track quality 100.0 % Test CRC 1BB45F3D Copy CRC 1BB45F3D Copy OK

Track 2 Filename G:\Oink Uploads\Batman Forever Soundtrack\02 - One Time Too Many.wav

Peak level 97.0 % Track quality 100.0 % Test CRC DE38EDA9 Copy CRC DE38EDA9 Copy OK

Track 3 Filename G:\Oink Uploads\Batman Forever Soundtrack\03 - Where Are You Now .wav

Peak level 87.7 % Track quality 100.0 % Test CRC AABF6FDA Copy CRC AABF6FDA Copy OK

Track 4 Filename G:\Oink Uploads\Batman Forever Soundtrack\04 - Kiss From A Rose.wav

Peak level 92.5 % Track quality 100.0 % Test CRC B9E63214 Copy CRC B9E63214 Copy OK

Track 5 Filename G:\Oink Uploads\Batman Forever Soundtrack\05 - The Hunter Get Captured By The Game.wav

Pre-gap length 0:00:01.06

Peak level 95.6 % Track quality 100.0 % Test CRC B4C4D329 Copy CRC B4C4D329 Copy OK

Track 6 Filename G:\Oink Uploads\Batman Forever Soundtrack\06 - Nobody Lives Without Love.wav

Peak level 99.9 % Track quality 100.0 % Test CRC 35E9D363 Copy CRC 35E9D363 Copy OK

Track 7 Filename G:\Oink Uploads\Batman Forever Soundtrack\07 - Tell Me Now.wav

Peak level 62.0 % Track quality 100.0 % Test CRC B27DAFB4 Copy CRC B27DAFB4 Copy OK

Track 8 Filename G:\Oink Uploads\Batman Forever Soundtrack\08 - Smash It Up.wav

Pre-gap length 0:00:00.33

Peak level 94.2 % Track quality 100.0 % Test CRC 5A5DF646 Copy CRC 5A5DF646 Copy OK

Track 9 Filename G:\Oink Uploads\Batman Forever Soundtrack\09 - There Is A Light.wav

Peak level 91.7 % Track quality 99.9 % Test CRC 4375DB8A Copy CRC 4375DB8A Copy OK

Track 10 Filename G:\Oink Uploads\Batman Forever Soundtrack\10 - The Riddler.wav

Pre-gap length 0:00:00.56

Peak level 97.1 % Track quality 100.0 % Test CRC 525906E8 Copy CRC 525906E8 Copy OK

Track 11 Filename G:\Oink Uploads\Batman Forever Soundtrack\11 - The Passenger.wav

Peak level 99.9 % Track quality 100.0 % Test CRC 6ECD1EC6 Copy CRC 6ECD1EC6 Copy OK

Track 12 Filename G:\Oink Uploads\Batman Forever Soundtrack\12 - Crossing The River.wav

Peak level 99.1 % Track quality 100.0 % Test CRC 86004C16 Copy CRC 86004C16 Copy OK

Track 13 Filename G:\Oink Uploads\Batman Forever Soundtrack\13 - 8.wav

Peak level 96.8 % Track quality 100.0 % Test CRC 92767B61 Copy CRC 92767B61 Copy OK

Track 14 Filename G:\Oink Uploads\Batman Forever Soundtrack\14 - Bad Days.wav

Pre-gap length 0:00:00.20

Peak level 85.7 % Track quality 100.0 % Test CRC 65EE626D Copy CRC 65EE626D Copy OK

No errors occured

End of status report
 
REM GENRE SoundtrackREM DATE 1995REM DISCID E20DF60EREM COMMENT "ExactAudioCopy v0.95b4"PERFORMER "Soundtrack"TITLE "Batman Forever"FILE "01 - U2 , Hold Me, Thrill Me, Kiss Me, Kill Me.wav" WAVE TRACK 01 AUDIO TITLE "U2 / Hold Me, Thrill Me, Kiss Me, Kill Me" PERFORMER "Soundtrack" PREGAP 00:00:33 INDEX 01 00:00:00FILE "02 - PJ Harvey , One Time Too Many.wav" WAVE TRACK 02 AUDIO TITLE "PJ Harvey / One Time Too Many" PERFORMER "Soundtrack" INDEX 01 00:00:00FILE "03 - Brandy , Where Are You Now .wav" WAVE TRACK 03 AUDIO TITLE "Brandy / Where Are You Now?" PERFORMER "Soundtrack" INDEX 01 00:00:00FILE "04 - Seal , Kiss From A Rose.wav" WAVE TRACK 04 AUDIO TITLE "Seal / Kiss From A Rose" PERFORMER "Soundtrack" INDEX 01 00:00:00 TRACK 05 AUDIO TITLE "Massive Attack w' Tracey Thorn / The Hunter Get Captured By The Game" PERFORMER "Soundtrack" INDEX 00 03:37:15FILE "05 - Massive Attack w' Tracey Thorn , The Hunter Get Captured By The Game.wav" WAVE INDEX 01 00:00:00FILE "06 - Eddi Reader , Nobody Lives Without Love.wav" WAVE TRACK 06 AUDIO TITLE "Eddi Reader / Nobody Lives Without Love" PERFORMER "Soundtrack" INDEX 01 00:00:00FILE "07 - Mazzy Star , Tell Me Now.wav" WAVE TRACK 07 AUDIO TITLE "Mazzy Star / Tell Me Now" PERFORMER "Soundtrack" INDEX 01 00:00:00 TRACK 08 AUDIO TITLE "Offspring / Smash It Up" PERFORMER "Soundtrack" INDEX 00 04:17:30FILE "08 - Offspring , Smash It Up.wav" WAVE INDEX 01 00:00:00FILE "09 - Nick Cave , There Is A Light.wav" WAVE TRACK 09 AUDIO TITLE "Nick Cave / There Is A Light" PERFORMER "Soundtrack" INDEX 01 00:00:00 TRACK 10 AUDIO TITLE "Method Man / The Riddler" PERFORMER "Soundtrack" INDEX 00 04:23:08FILE "10 - Method Man , The Riddler.wav" WAVE INDEX 01 00:00:00FILE "11 - Michael Hutchence , The Passenger.wav" WAVE TRACK 11 AUDIO TITLE "Michael Hutchence / The Passenger" PERFORMER "Soundtrack" INDEX 01 00:00:00FILE "12 - Devlins , Crossing The River.wav" WAVE TRACK 12 AUDIO TITLE "Devlins / Crossing The River" PERFORMER "Soundtrack" INDEX 01 00:00:00FILE "13 - Sunny Day Real Estate , 8.wav" WAVE TRACK 13 AUDIO TITLE "Sunny Day Real Estate / 8" PERFORMER "Soundtrack" INDEX 01 00:00:00 TRACK 14 AUDIO TITLE "Flaming Lips / Bad Days" PERFORMER "Soundtrack" INDEX 00 05:27:00FILE "14 - Flaming Lips , Bad Days.wav" WAVE INDEX 01 00:00:00


Трекер:  [ 02-Дек-2011 19:03 ]

  

Скачать .torrent

Размер .torrent файла 16 KB


Размер: 387 MB
Хэш (hash) релиза: 5982500697d5f272dbe3adca431bdb7ba605e5b7

Еще никто не оставлял запись к записи скачать торрент Бэтмен навсегда Batman Forever - 1995, FLAC . Будь первым!

!Обратная связь