Скачать через торрент музыку Хэллоуин 2 Halloween II бесплатно без регистрации torrent

Если у вас наблюдаются проблемы со скриншотами, переходом по ссылками, скачиванием торрентов - проблемы в блокировщике рекламы AdBlock. #хорошегоДня!


Статистика раздачи
Размер:  185 MB   |    Зарегистрирован:  5 лет 9 месяцев   |    .torrent скачан:  35 раз   |   
Раздают:  1  
   
Загрузка...
 
Автор Сообщение

Galfimbul

avatar Galfimbul


Хэллоуин 2 / Halloween II

Жанр: Score
Композитор: John Carpenter
Год выпуска диска: 1988
Год выпуска фильма: 1981
Страна-производитель диска: США
Издатель (лейбл): Varese Sarabande
Номер по каталогу: VCD 47152

Аудиокодек: FLAC (*.flac)
Тип рипа: tracks+.cue
Битрейт аудио: lossless
Продолжительность: 31:09

Источник: forums.ffshrine.org
Наличие сканов в содержимом раздачи: да

Треклист:
01 Halloween Theme (4:32)
02 Laurie's Theme (2:54)
03 He Knows Where She Is! (1:08)
04 Laurie And Jimmy (3:03)
05 Still He Kills (Murder Montage) (4:33)
06 The Shape Enters Laurie's Room (1:32)
07 Mrs. Alves (1:42)
08 Flats In The Parking Lot (1:25)
09 Michael's Sister (3:03)
10 The Shape Stalks Again (3:05)
11 In The Operating Room (1:51)
12 Mr. Sandman (Performed by The Chordettes) (2:23)

Доп. информация: Producer, Recorded, Edited, Programmed, Sequenced – Alan Howarth
 
Exact Audio Copy V0.99 prebeta 4 from 23. January 2008

EAC extraction logfile from 8. March 2009, 0:51

John Carpenter / Halloween II

Used drive : HP DVD Writer 840x Adapter: 1 ID: 0

Read mode : SecureUtilize accurate stream : YesDefeat audio cache : YesMake use of C2 pointers : No

Read offset correction : 102Overread into Lead-In and Lead-Out : NoFill up missing offset samples with silence : YesDelete leading and trailing silent blocks : NoNull samples used in CRC calculations : YesUsed interface : Installed external ASPI interfaceGap handling : Appended to previous track

Used output format : User Defined EncoderSelected bitrate : 192 kBit/sQuality : HighAdd ID3 tag : NoCommand line compressor : C:\Program Files\FLAC\flac.exeAdditional command line options : -8 -A tukey(0.25) -A gauss(0.1875) -b 4096 -V -T "artist=%a" -T "title=%t" -T "album=%g" -T "date=%y" -T "tracknumber=%n" -T "genre=%m" %s --sector-align

TOC of the extracted CD

Track | Start | Length | Start sector | End sector --------------------------------------------------------- 1 | 0:00.37 | 4:31.63 | 37 | 20424 2 | 4:32.25 | 2:53.62 | 20425 | 33461 3 | 7:26.12 | 1:07.38 | 33462 | 38524 4 | 8:33.50 | 3:02.50 | 38525 | 52224 5 | 11:36.25 | 4:32.62 | 52225 | 72686 6 | 16:09.12 | 1:31.38 | 72687 | 79549 7 | 17:40.50 | 1:42.00 | 79550 | 87199 8 | 19:22.50 | 1:25.12 | 87200 | 93586 9 | 20:47.62 | 3:02.60 | 93587 | 107296 10 | 23:50.47 | 3:04.40 | 107297 | 121136 11 | 26:55.12 | 1:51.10 | 121137 | 129471 12 | 28:46.22 | 2:23.15 | 129472 | 140211

Track 1

Filename N:\Music\Halloween II\01 - Halloween Theme.wav

Pre-gap length 0:00:02.49

Peak level 76.2 % Track quality 99.9 % Test CRC 2A63650A Copy CRC 2A63650A Copy OK

Track 2

Filename N:\Music\Halloween II\02 - Laurie's Theme.wav

Pre-gap length 0:00:00.73

Peak level 58.6 % Track quality 100.0 % Test CRC 19760AFA Copy CRC 19760AFA Copy OK

Track 3

Filename N:\Music\Halloween II\03 - He Knows Where She Is!.wav

Pre-gap length 0:00:00.16

Peak level 99.0 % Track quality 100.0 % Test CRC C576EF8C Copy CRC C576EF8C Copy OK

Track 4

Filename N:\Music\Halloween II\04 - Laurie And Jimmy.wav

Pre-gap length 0:00:00.49

Peak level 78.7 % Track quality 100.0 % Test CRC E75CEC65 Copy CRC E75CEC65 Copy OK

Track 5

Filename N:\Music\Halloween II\05 - Still He Kills (Murder Montage).wav

Pre-gap length 0:00:00.86

Peak level 100.0 % Track quality 100.0 % Test CRC C5D5508E Copy CRC C5D5508E Copy OK

Track 6

Filename N:\Music\Halloween II\06 - The Shape Enters Laurie's Room.wav

Pre-gap length 0:00:00.69

Peak level 69.7 % Track quality 100.0 % Test CRC BF4967EB Copy CRC BF4967EB Copy OK

Track 7

Filename N:\Music\Halloween II\07 - Mrs. Alves.wav

Pre-gap length 0:00:00.76

Peak level 38.7 % Track quality 100.0 % Test CRC 3138A507 Copy CRC 3138A507 Copy OK

Track 8

Filename N:\Music\Halloween II\08 - Flats In The Parking Lot.wav

Pre-gap length 0:00:00.36

Peak level 18.5 % Track quality 100.0 % Test CRC 30EE86CD Copy CRC 30EE86CD Copy OK

Track 9

Filename N:\Music\Halloween II\09 - Michael's Sister.wav

Pre-gap length 0:00:00.66

Peak level 71.4 % Track quality 100.0 % Test CRC 530C69F3 Copy CRC 530C69F3 Copy OK

Track 10

Filename N:\Music\Halloween II\10 - The Shape Stalks Again.wav

Peak level 62.6 % Track quality 100.0 % Test CRC 51134688 Copy CRC 51134688 Copy OK

Track 11

Filename N:\Music\Halloween II\11 - In The Operating Room.wav

Pre-gap length 0:00:00.49

Peak level 66.2 % Track quality 100.0 % Test CRC 43D66354 Copy CRC 43D66354 Copy OK

Track 12

Filename N:\Music\Halloween II\12 - Mr. Sandman.wav

Pre-gap length 0:00:01.62

Peak level 57.3 % Track quality 99.7 % Test CRC CB3FB8E6 Copy CRC CB3FB8E6 Copy OK

No errors occurred

End of status report
 
REM GENRE SoundtrackREM DATE 1981REM DISCID A2074D0CREM COMMENT "ExactAudioCopy v0.99pb4"PERFORMER "John Carpenter"TITLE "Halloween II"FILE "01 Halloween Theme.wav" WAVE TRACK 01 AUDIO TITLE "Halloween Theme" PERFORMER "John Carpenter" PREGAP 00:00:37 INDEX 01 00:00:00 TRACK 02 AUDIO TITLE "Laurie's Theme" PERFORMER "John Carpenter" INDEX 00 04:31:08FILE "02 Laurie's Theme.wav" WAVE INDEX 01 00:00:00 TRACK 03 AUDIO TITLE "He Knows Where She Is!" PERFORMER "John Carpenter" INDEX 00 02:53:50FILE "03 He Knows Where She Is!.wav" WAVE INDEX 01 00:00:00 TRACK 04 AUDIO TITLE "Laurie And Jimmy" PERFORMER "John Carpenter" INDEX 00 01:07:01FILE "04 Laurie And Jimmy.wav" WAVE INDEX 01 00:00:00 TRACK 05 AUDIO TITLE "Still He Kills (Murder Montage)" PERFORMER "John Carpenter" INDEX 00 03:01:60FILE "05 Still He Kills (Murder Montage).wav" WAVE INDEX 01 00:00:00 TRACK 06 AUDIO TITLE "The Shape Enters Laurie's Room" PERFORMER "John Carpenter" INDEX 00 04:32:10FILE "06 The Shape Enters Laurie's Room.wav" WAVE INDEX 01 00:00:00 TRACK 07 AUDIO TITLE "Mrs. Alves" PERFORMER "John Carpenter" INDEX 00 01:30:56FILE "07 Mrs. Alves.wav" WAVE INDEX 01 00:00:00 TRACK 08 AUDIO TITLE "Flats In The Parking Lot" PERFORMER "John Carpenter" INDEX 00 01:41:48FILE "08 Flats In The Parking Lot.wav" WAVE INDEX 01 00:00:00 TRACK 09 AUDIO TITLE "Michael's Sister" PERFORMER "John Carpenter" INDEX 00 01:24:37FILE "09 Michael's Sister.wav" WAVE INDEX 01 00:00:00FILE "10 The Shape Stalks Again.wav" WAVE TRACK 10 AUDIO TITLE "The Shape Stalks Again" PERFORMER "John Carpenter" INDEX 01 00:00:00 TRACK 11 AUDIO TITLE "In The Operating Room" PERFORMER "John Carpenter" INDEX 00 03:04:03FILE "11 In The Operating Room.wav" WAVE INDEX 01 00:00:00 TRACK 12 AUDIO TITLE "Mr. Sandman (Performed by The Chordettes)" PERFORMER "John Carpenter" INDEX 00 01:49:38FILE "12 Mr. Sandman (Performed by The Chordettes).wav" WAVE INDEX 01 00:00:00


Трекер:  [ 02-Дек-2011 19:04 ]

  

Скачать .torrent

Размер .torrent файла 16 KB


Размер: 185 MB
Хэш (hash) релиза: e771c6595437690189b1e3ad60b6fb94d17dbe50

Еще никто не оставлял запись к записи скачать торрент Хэллоуин 2 Halloween II . Будь первым!

!Обратная связь