Скачать через торрент музыку Аноним Anonymous бесплатно без регистрации torrent

Если у вас наблюдаются проблемы со скриншотами, переходом по ссылками, скачиванием торрентов - проблемы в блокировщике рекламы AdBlock. #хорошегоДня!


Статистика раздачи
Размер:  226 MB   |    Зарегистрирован:  5 лет 9 месяцев   |    .torrent скачан:  35 раз   |   
Раздают:  1  
   
Загрузка...
 
Автор Сообщение

Galfimbul

avatar Galfimbul


Аноним / Anonymous
Жанр: Score
Композитор: Thomas Wander & Harald Kloser
Год выпуска диска: 2011
Страна-производитель диска: USA
Издатель (лейбл): Madison Gate Records
Номер по каталогу: отсутствует
EAN/UPC: 043396348271
Аудиокодек: FLAC (*.flac)
Тип рипа: tracks+.cue
Битрейт аудио: lossless
Продолжительность: 40:14
Источник: собственный рип
Наличие сканов в содержимом раздачи: да, 600 dpi
Доп. информация: CD-R, произведенный в Amazon.com по заказу.
01. She Had Your Child [0:02:09.57]
02. The Succession [0:02:15.03]
03. Edward's Breakdown [0:01:41.26]
04. Hamlet In The Rain [0:01:24.41]
05. Soul Of The Age [0:03:10.18]
06. You Stay In England [0:01:08.21]
07. God Save The Queen [0:02:59.02]
08. Play After Play [0:02:35.64]
09. The Voices [0:01:22.50]
10. Arrest Them [0:01:54.47]
11. Edward's Theme [0:01:33.10]
12. Words Will Prevail [0:01:34.37]
13. Bedding The Queen [0:01:17.37]
14. Bursting In [0:01:23.07]
15. William Shake-Speare [0:02:56.42]
16. It's A Trap [0:02:36.71]
17. Day Of The Play [0:05:22.32]
18. Will's Triumph [0:01:29.49]
19. The Other One [0:01:19.63]

 
Exact Audio Copy V1.0 beta 3 from 29. August 2011

EAC extraction logfile from 19. November 2011, 12:33

Thomas Wander & Harald Kloser / Anonymous

Used drive : TSSTcorpCDDVDW TS-U633J Adapter: 0 ID: 1

Read mode : SecureUtilize accurate stream : YesDefeat audio cache : YesMake use of C2 pointers : No

Read offset correction : 6Overread into Lead-In and Lead-Out : NoFill up missing offset samples with silence : YesDelete leading and trailing silent blocks : NoNull samples used in CRC calculations : YesUsed interface : Native Win32 interface for Win NT & 2000Gap handling : Appended to previous track

Used output format : User Defined EncoderSelected bitrate : 768 kBit/sQuality : HighAdd ID3 tag : NoCommand line compressor : C:\Program Files\Exact Audio Copy\FLAC\FLAC.EXEAdditional command line options : -6 -V -T "ARTIST=%artist%" -T "TITLE=%title%" -T "ALBUM=%albumtitle%" -T "DATE=%year%" -T "TRACKNUMBER=%tracknr%" -T "GENRE=%genre%" -T "COMMENT=%comment%" -T "BAND=%albuminterpret%" -T "ALBUMARTIST=%albuminterpret%" -T "COMPOSER=%composer%" -T "DISCNUMBER=%cdnumber%" -T "TOTALDISCS=%totalcds%" -T "TOTALTRACKS=%numtracks%" %source% -o %dest%

TOC of the extracted CD

Track | Start | Length | Start sector | End sector --------------------------------------------------------- 1 | 0:00.00 | 2:09.57 | 0 | 9731 2 | 2:09.57 | 2:15.03 | 9732 | 19859 3 | 4:24.60 | 1:41.26 | 19860 | 27460 4 | 6:06.11 | 1:24.41 | 27461 | 33801 5 | 7:30.52 | 3:10.18 | 33802 | 48069 6 | 10:40.70 | 1:08.21 | 48070 | 53190 7 | 11:49.16 | 2:59.02 | 53191 | 66617 8 | 14:48.18 | 2:35.64 | 66618 | 78306 9 | 17:24.07 | 1:22.50 | 78307 | 84506 10 | 18:46.57 | 1:54.47 | 84507 | 93103 11 | 20:41.29 | 1:33.10 | 93104 | 100088 12 | 22:14.39 | 1:34.37 | 100089 | 107175 13 | 23:49.01 | 1:17.37 | 107176 | 112987 14 | 25:06.38 | 1:23.07 | 112988 | 119219 15 | 26:29.45 | 2:56.42 | 119220 | 132461 16 | 29:26.12 | 2:36.71 | 132462 | 144232 17 | 32:03.08 | 5:22.32 | 144233 | 168414 18 | 37:25.40 | 1:29.49 | 168415 | 175138 19 | 38:55.14 | 1:19.63 | 175139 | 181126

Track 1

Filename C:\Music\01 - Thomas Wander & Harald Kloser - She Had Your Child.wav

Pre-gap length 0:00:02.00

Peak level 54.5 % Extraction speed 1.0 X Track quality 100.0 % Test CRC C0C86A43 Copy CRC C0C86A43 Track not present in AccurateRip database Copy OK

Track 2

Filename C:\Music\02 - Thomas Wander & Harald Kloser - The Succession.wav

Peak level 94.4 % Extraction speed 1.1 X Track quality 100.0 % Test CRC 7D6AF8F8 Copy CRC 7D6AF8F8 Track not present in AccurateRip database Copy OK

Track 3

Filename C:\Music\03 - Thomas Wander & Harald Kloser - Edward's Breakdown.wav

Peak level 58.1 % Extraction speed 1.1 X Track quality 100.0 % Test CRC B392A3C8 Copy CRC B392A3C8 Track not present in AccurateRip database Copy OK

Track 4

Filename C:\Music\04 - Thomas Wander & Harald Kloser - Hamlet In The Rain.wav

Peak level 47.5 % Extraction speed 1.1 X Track quality 100.0 % Test CRC 5EA5FAF0 Copy CRC 5EA5FAF0 Track not present in AccurateRip database Copy OK

Track 5

Filename C:\Music\05 - Thomas Wander & Harald Kloser - Soul Of The Age.wav

Peak level 67.4 % Extraction speed 1.2 X Track quality 99.9 % Test CRC 29B7750C Copy CRC 29B7750C Track not present in AccurateRip database Copy OK

Track 6

Filename C:\Music\06 - Thomas Wander & Harald Kloser - You Stay In England.wav

Peak level 54.8 % Extraction speed 1.1 X Track quality 100.0 % Test CRC A8F8C2D7 Copy CRC A8F8C2D7 Track not present in AccurateRip database Copy OK

Track 7

Filename C:\Music\07 - Thomas Wander & Harald Kloser - God Save The Queen.wav

Peak level 87.3 % Extraction speed 1.5 X Track quality 100.0 % Test CRC 2D43D968 Copy CRC 2D43D968 Track not present in AccurateRip database Copy OK

Track 8

Filename C:\Music\08 - Thomas Wander & Harald Kloser - Play After Play.wav

Peak level 87.6 % Extraction speed 1.5 X Track quality 100.0 % Test CRC 63C365CB Copy CRC 63C365CB Track not present in AccurateRip database Copy OK

Track 9

Filename C:\Music\09 - Thomas Wander & Harald Kloser - The Voices.wav

Peak level 76.5 % Extraction speed 1.0 X Track quality 99.8 % Test CRC 748B46C6 Copy CRC 748B46C6 Track not present in AccurateRip database Copy OK

Track 10

Filename C:\Music\10 - Thomas Wander & Harald Kloser - Arrest Them.wav

Peak level 96.0 % Extraction speed 1.4 X Track quality 100.0 % Test CRC BCAF8917 Copy CRC BCAF8917 Track not present in AccurateRip database Copy OK

Track 11

Filename C:\Music\11 - Thomas Wander & Harald Kloser - Edward's Theme.wav

Peak level 41.4 % Extraction speed 1.4 X Track quality 100.0 % Test CRC D78AA118 Copy CRC D78AA118 Track not present in AccurateRip database Copy OK

Track 12

Filename C:\Music\12 - Thomas Wander & Harald Kloser - Words Will Prevail.wav

Peak level 81.1 % Extraction speed 1.4 X Track quality 100.0 % Test CRC 6F69CA3F Copy CRC 6F69CA3F Track not present in AccurateRip database Copy OK

Track 13

Filename C:\Music\13 - Thomas Wander & Harald Kloser - Bedding The Queen.wav

Peak level 67.2 % Extraction speed 1.4 X Track quality 100.0 % Test CRC 4A5B5CEB Copy CRC 4A5B5CEB Track not present in AccurateRip database Copy OK

Track 14

Filename C:\Music\14 - Thomas Wander & Harald Kloser - Bursting In.wav

Peak level 75.3 % Extraction speed 1.4 X Track quality 100.0 % Test CRC EB9DA0C5 Copy CRC EB9DA0C5 Track not present in AccurateRip database Copy OK

Track 15

Filename C:\Music\15 - Thomas Wander & Harald Kloser - William Shake-Speare.wav

Peak level 53.9 % Extraction speed 1.8 X Track quality 100.0 % Test CRC 6D537869 Copy CRC 6D537869 Track not present in AccurateRip database Copy OK

Track 16

Filename C:\Music\16 - Thomas Wander & Harald Kloser - It's A Trap.wav

Peak level 94.4 % Extraction speed 1.8 X Track quality 100.0 % Test CRC 37085314 Copy CRC 37085314 Track not present in AccurateRip database Copy OK

Track 17

Filename C:\Music\17 - Thomas Wander & Harald Kloser - Day Of The Play.wav

Peak level 94.6 % Extraction speed 2.0 X Track quality 100.0 % Test CRC B62B1AEE Copy CRC B62B1AEE Track not present in AccurateRip database Copy OK

Track 18

Filename C:\Music\18 - Thomas Wander & Harald Kloser - Will's Triumph.wav

Peak level 94.4 % Extraction speed 1.2 X Track quality 99.8 % Test CRC CF29BAB4 Copy CRC CF29BAB4 Track not present in AccurateRip database Copy OK

Track 19

Filename C:\Music\19 - Thomas Wander & Harald Kloser - The Other One.wav

Peak level 56.1 % Extraction speed 1.6 X Track quality 100.0 % Test CRC 50C7921F Copy CRC 50C7921F Track not present in AccurateRip database Copy OK

None of the tracks are present in the AccurateRip database

No errors occurred

End of status report

==== Log checksum C9FF483C652E84F5E0A102E1CB6F659753F5B9ACA5F5BD789702C2F98C557676 ====
 
REM GENRE SoundtrackREM DATE 2011REM DISCID F1096F13REM COMMENT "ExactAudioCopy v1.0b3"PERFORMER "Thomas Wander & Harald Kloser"TITLE "Anonymous"FILE "01 - Thomas Wander & Harald Kloser - She Had Your Child.wav" WAVE TRACK 01 AUDIO TITLE "She Had Your Child" PERFORMER "Thomas Wander & Harald Kloser" INDEX 01 00:00:00FILE "02 - Thomas Wander & Harald Kloser - The Succession.wav" WAVE TRACK 02 AUDIO TITLE "The Succession" PERFORMER "Thomas Wander & Harald Kloser" INDEX 01 00:00:00FILE "03 - Thomas Wander & Harald Kloser - Edward's Breakdown.wav" WAVE TRACK 03 AUDIO TITLE "Edward's Breakdown" PERFORMER "Thomas Wander & Harald Kloser" INDEX 01 00:00:00FILE "04 - Thomas Wander & Harald Kloser - Hamlet In The Rain.wav" WAVE TRACK 04 AUDIO TITLE "Hamlet In The Rain" PERFORMER "Thomas Wander & Harald Kloser" INDEX 01 00:00:00FILE "05 - Thomas Wander & Harald Kloser - Soul Of The Age.wav" WAVE TRACK 05 AUDIO TITLE "Soul Of The Age" PERFORMER "Thomas Wander & Harald Kloser" INDEX 01 00:00:00FILE "06 - Thomas Wander & Harald Kloser - You Stay In England.wav" WAVE TRACK 06 AUDIO TITLE "You Stay In England" PERFORMER "Thomas Wander & Harald Kloser" INDEX 01 00:00:00FILE "07 - Thomas Wander & Harald Kloser - God Save The Queen.wav" WAVE TRACK 07 AUDIO TITLE "God Save The Queen" PERFORMER "Thomas Wander & Harald Kloser" INDEX 01 00:00:00FILE "08 - Thomas Wander & Harald Kloser - Play After Play.wav" WAVE TRACK 08 AUDIO TITLE "Play After Play" PERFORMER "Thomas Wander & Harald Kloser" INDEX 01 00:00:00FILE "09 - Thomas Wander & Harald Kloser - The Voices.wav" WAVE TRACK 09 AUDIO TITLE "The Voices" PERFORMER "Thomas Wander & Harald Kloser" INDEX 01 00:00:00FILE "10 - Thomas Wander & Harald Kloser - Arrest Them.wav" WAVE TRACK 10 AUDIO TITLE "Arrest Them" PERFORMER "Thomas Wander & Harald Kloser" INDEX 01 00:00:00FILE "11 - Thomas Wander & Harald Kloser - Edward's Theme.wav" WAVE TRACK 11 AUDIO TITLE "Edward's Theme" PERFORMER "Thomas Wander & Harald Kloser" INDEX 01 00:00:00FILE "12 - Thomas Wander & Harald Kloser - Words Will Prevail.wav" WAVE TRACK 12 AUDIO TITLE "Words Will Prevail" PERFORMER "Thomas Wander & Harald Kloser" INDEX 01 00:00:00FILE "13 - Thomas Wander & Harald Kloser - Bedding The Queen.wav" WAVE TRACK 13 AUDIO TITLE "Bedding The Queen" PERFORMER "Thomas Wander & Harald Kloser" INDEX 01 00:00:00FILE "14 - Thomas Wander & Harald Kloser - Bursting In.wav" WAVE TRACK 14 AUDIO TITLE "Bursting In" PERFORMER "Thomas Wander & Harald Kloser" INDEX 01 00:00:00FILE "15 - Thomas Wander & Harald Kloser - William Shake-Speare.wav" WAVE TRACK 15 AUDIO TITLE "William Shake-Speare" PERFORMER "Thomas Wander & Harald Kloser" INDEX 01 00:00:00FILE "16 - Thomas Wander & Harald Kloser - It's A Trap.wav" WAVE TRACK 16 AUDIO TITLE "It's A Trap" PERFORMER "Thomas Wander & Harald Kloser" INDEX 01 00:00:00FILE "17 - Thomas Wander & Harald Kloser - Day Of The Play.wav" WAVE TRACK 17 AUDIO TITLE "Day Of The Play" PERFORMER "Thomas Wander & Harald Kloser" INDEX 01 00:00:00FILE "18 - Thomas Wander & Harald Kloser - Will's Triumph.wav" WAVE TRACK 18 AUDIO TITLE "Will's Triumph" PERFORMER "Thomas Wander & Harald Kloser" INDEX 01 00:00:00FILE "19 - Thomas Wander & Harald Kloser - The Other One.wav" WAVE TRACK 19 AUDIO TITLE "The Other One" PERFORMER "Thomas Wander & Harald Kloser" INDEX 01 00:00:00


Трекер:  [ 02-Дек-2011 19:05 ]

  

Скачать .torrent

Размер .torrent файла 7 KB


Размер: 226 MB
Хэш (hash) релиза: 83418bb6759e9bb624d8e250ef55f2be56097443

Торренты, похожие на Аноним Anonymous скачать торрент

Форум Название Автор Размер S L Добавлен
Саундтреки к фильмам и мультфильмам (mp3) ·· (Score) Аноним / Anonymous (by Thomas Wander & Harald Kloser) - 2011, MP3, 320 kbps Galfimbul 9674950392 MB 0 0 1322396275

15:17

27-Ноя-11

Еще никто не оставлял запись к записи скачать торрент Аноним Anonymous . Будь первым!

!Обратная связь