Скачать через торрент музыку Доктор кто: Музыка из Десятой планеты Dr. Who: Music From The Tenth Planet бесплатно без регистрации torrent

Если у вас наблюдаются проблемы со скриншотами, переходом по ссылками, скачиванием торрентов - проблемы в блокировщике рекламы AdBlock. #хорошегоДня!


Статистика раздачи
Размер:  41 MB   |    Зарегистрирован:  5 лет 9 месяцев   |    .torrent скачан:  37 раз   |   
Раздают:  1  
   
Загрузка...
 
Автор Сообщение

Galfimbul

avatar Galfimbul


Доктор кто: Музыка из Десятой планеты / Dr. Who: Music From The Tenth Planet
Music by Roger Roger, Walter Stott, Gouglas Gamley, Martin Slavin, Dennis Farnon, Robert Farnon

Жанр: Score | Год выпуска диска: 2000 | Год выпуска фильма: 1966
Издатель (лейбл): Ochre Records | Номер по каталогу: OCH050
Аудиокодек: FLAC (*.flac) | Тип рипа: tracks+.cue | Битрейт аудио: lossless
Продолжительность: 00:19:05
Источник: ffshrine
01. Roger Roger - Blast Off! [02:24]
02. Walter Stott - Music For Technology [01:35]
03. Douglas Gamley - Power Drill [01:15]
04. Martin Slavin - Space Adventure Part 1 [00:41]
05. Martin Slavin - Space Adventure Part 2 [01:25]
06. Martin Slavin - Space Adventure Part 3 [00:17]
07. Dennis Farnon - Drama In Minature Part 1 [01:31]
08. Dennis Farnon - Drama In Minature Part 2 [01:10]
09. Douglas Gamley - Machine Room [03:02]
10. Robert Farnon - Drumdramatics 7 [02:33]
11. Robert Farnon - Drumdramatics 10 [03:08]
 
Exact Audio Copy V0.99 prebeta 5 from 4. May 2009

EAC extraction logfile from 27. November 2009, 15:43

Various Artists / Dr Who - Music from The Tenth Planet

Used drive : TSSTcorpDVD+-RW TS-H653F Adapter: 2 ID: 1

Read mode : SecureUtilize accurate stream : YesDefeat audio cache : YesMake use of C2 pointers : No

Read offset correction : 6Overread into Lead-In and Lead-Out : NoFill up missing offset samples with silence : YesDelete leading and trailing silent blocks : NoNull samples used in CRC calculations : YesUsed interface : Native Win32 interface for Win NT & 2000Gap handling : Appended to previous track

Used output format : User Defined EncoderSelected bitrate : 128 kBit/sQuality : HighAdd ID3 tag : NoCommand line compressor : C:\Program Files\FLAC\flac.exeAdditional command line options : -V -8 -T "artist=%a" -T "title=%t" -T "album=%g" -T "date=%y" -T "tracknumber=%n" -T "genre=%m" %s

TOC of the extracted CD

Track | Start | Length | Start sector | End sector --------------------------------------------------------- 1 | 0:00.00 | 2:24.28 | 0 | 10827 2 | 2:24.28 | 1:35.04 | 10828 | 17956 3 | 3:59.32 | 1:15.52 | 17957 | 23633 4 | 5:15.09 | 0:41.34 | 23634 | 26742 5 | 5:56.43 | 1:25.03 | 26743 | 33120 6 | 7:21.46 | 0:17.54 | 33121 | 34449 7 | 7:39.25 | 1:31.58 | 34450 | 41332 8 | 9:11.08 | 1:10.02 | 41333 | 46584 9 | 10:21.10 | 3:02.00 | 46585 | 60234 10 | 13:23.10 | 2:33.15 | 60235 | 71724 11 | 15:56.25 | 3:08.54 | 71725 | 85878

Track 1

Filename C:\Extractions\Dr Who - Music from The Tenth Planet\01 Blast Off!.wav

Pre-gap length 0:00:02.00

Peak level 71.4 % Track quality 100.0 % Test CRC F49A1158 Copy CRC F49A1158 Track not present in AccurateRip database Copy OK

Track 2

Filename C:\Extractions\Dr Who - Music from The Tenth Planet\02 Music For Technology.wav

Peak level 47.0 % Track quality 100.0 % Test CRC BEB18A98 Copy CRC BEB18A98 Track not present in AccurateRip database Copy OK

Track 3

Filename C:\Extractions\Dr Who - Music from The Tenth Planet\03 Power Drill.wav

Peak level 79.3 % Track quality 99.8 % Test CRC DADCA2BC Copy CRC DADCA2BC Track not present in AccurateRip database Copy OK

Track 4

Filename C:\Extractions\Dr Who - Music from The Tenth Planet\04 Space Adventure Part 1.wav

Peak level 35.5 % Track quality 100.0 % Test CRC 2E5FD7C0 Copy CRC 2E5FD7C0 Track not present in AccurateRip database Copy OK

Track 5

Filename C:\Extractions\Dr Who - Music from The Tenth Planet\05 Space Adventure Part 2.wav

Peak level 47.6 % Track quality 100.0 % Test CRC 5D316EEA Copy CRC 5D316EEA Track not present in AccurateRip database Copy OK

Track 6

Filename C:\Extractions\Dr Who - Music from The Tenth Planet\06 Space Adventure Part 3.wav

Peak level 34.5 % Track quality 100.0 % Test CRC 23268F8A Copy CRC 23268F8A Track not present in AccurateRip database Copy OK

Track 7

Filename C:\Extractions\Dr Who - Music from The Tenth Planet\07 Drama In Minature Part 1.wav

Peak level 31.8 % Track quality 100.0 % Test CRC 8001C69A Copy CRC 8001C69A Track not present in AccurateRip database Copy OK

Track 8

Filename C:\Extractions\Dr Who - Music from The Tenth Planet\08 Drama In Minature Part 2.wav

Peak level 66.9 % Track quality 100.0 % Test CRC 07C8F459 Copy CRC 07C8F459 Track not present in AccurateRip database Copy OK

Track 9

Filename C:\Extractions\Dr Who - Music from The Tenth Planet\09 Machine Room.wav

Peak level 87.0 % Track quality 100.0 % Test CRC 2BC7A40E Copy CRC 2BC7A40E Track not present in AccurateRip database Copy OK

Track 10

Filename C:\Extractions\Dr Who - Music from The Tenth Planet\10 Drumdramatics 7.wav

Peak level 62.3 % Track quality 100.0 % Test CRC 8143FC1C Copy CRC 8143FC1C Track not present in AccurateRip database Copy OK

Track 11

Filename C:\Extractions\Dr Who - Music from The Tenth Planet\11 Drumdramatics 10.wav

Peak level 28.2 % Track quality 100.0 % Test CRC 3832A8AA Copy CRC 3832A8AA Track not present in AccurateRip database Copy OK

None of the tracks are present in the AccurateRip database

No errors occurred

End of status report
 
REM GENRE SoundtrackREM DATE 2000REM DISCID 8004790BREM COMMENT "ExactAudioCopy v0.99pb5"PERFORMER "Various Artists"TITLE "Dr. Who: Music From The Tenth Planet"FILE "01 Blast Off!.wav" WAVE TRACK 01 AUDIO TITLE "Blast Off!" PERFORMER "Roger Roger" FLAGS DCP INDEX 01 00:00:00FILE "02 Music For Technology.wav" WAVE TRACK 02 AUDIO TITLE "Music For Technology" PERFORMER "Walter Stott" FLAGS DCP INDEX 01 00:00:00FILE "03 Power Drill.wav" WAVE TRACK 03 AUDIO TITLE "Power Drill" PERFORMER "Douglas Gamley" FLAGS DCP INDEX 01 00:00:00FILE "04 Space Adventure Part 1.wav" WAVE TRACK 04 AUDIO TITLE Space Adventure Part 1"" PERFORMER "Martin Slavin" FLAGS DCP INDEX 01 00:00:00FILE "05 Space Adventure Part 2.wav" WAVE TRACK 05 AUDIO TITLE "Space Adventure Part 2" PERFORMER "Martin Slavin" FLAGS DCP INDEX 01 00:00:00FILE "06 Space Adventure Part 3.wav" WAVE TRACK 06 AUDIO TITLE "Space Adventure Part 3" PERFORMER "Martin Slavin" FLAGS DCP INDEX 01 00:00:00FILE "07 Drama In Minature Part 1.wav" WAVE TRACK 07 AUDIO TITLE "Drama In Minature Part 1" PERFORMER "Dennis Farnon" FLAGS DCP INDEX 01 00:00:00FILE "08 Drama In Minature Part 2.wav" WAVE TRACK 08 AUDIO TITLE "Drama In Minature Part 2" PERFORMER "Dennis Farnon" FLAGS DCP INDEX 01 00:00:00FILE "09 Machine Room.wav" WAVE TRACK 09 AUDIO TITLE "Machine Room" PERFORMER "Douglas Gamley" FLAGS DCP INDEX 01 00:00:00FILE "10 Drumdramatics 7.wav" WAVE TRACK 10 AUDIO TITLE "Drumdramatics 7" PERFORMER "Robert Farnon" FLAGS DCP INDEX 01 00:00:00FILE "11 Drumdramatics 10.wav" WAVE TRACK 11 AUDIO TITLE "Drumdramatics 10" PERFORMER "Robert Farnon" FLAGS DCP INDEX 01 00:00:00
 
AUDIOCHECKER v2.0 beta (build 457) - by Dester - opdester@freemail.hu~~~~~~~~~~~~~~~~~~~~~~~~~~~~~~~~~~-=== НЕ РЕДАКТИРУЙТЕ ЭТОТ ФАЙЛ! ===-

Путь: ...\VA - 2000 - Doctor Who - Music from The Tenth Planet [FLAC]

01 -=- 01 Blast Off!.flac -=- CDDA (100%)02 -=- 02 Music For Technology.flac -=- CDDA (100%)03 -=- 03 Power Drill.flac -=- CDDA (100%)04 -=- 04 Space Adventure Part 1.flac -=- CDDA (100%)05 -=- 05 Space Adventure Part 2.flac -=- CDDA (100%)06 -=- 06 Space Adventure Part 3.flac -=- CDDA (100%)07 -=- 07 Drama In Minature Part 1.flac -=- CDDA (100%)08 -=- 08 Drama In Minature Part 2.flac -=- CDDA (100%)09 -=- 09 Machine Room.flac -=- CDDA (100%)10 -=- 10 Drumdramatics 7.flac -=- CDDA (100%)11 -=- 11 Drumdramatics 10.flac -=- CDDA (100%)

Сводка 100,00% CDDA

4310900


Трекер:  [ 02-Дек-2011 19:05 ]

  

Скачать .torrent

Размер .torrent файла 4 KB


Размер: 41 MB
Хэш (hash) релиза: d64efbec3fc7805f7ae846ae1690127d96499b0d

Торренты, похожие на Доктор кто: Музыка из Десятой планеты Dr. Who: Music From The Tenth Planet скачать торрент

Форум Название Автор Размер S L Добавлен
Саундтреки к фильмам и мультфильмам (mp3) ·· (Score) Доктор кто: Музыка из Десятой планеты / Dr. Who: Music From The Tenth Planet (by Roger Roger, Walter Stott, Gouglas Gamley, Martin Slavin, Dennis Farnon, Robert Farnon) - 2000 (1966), MP3, 320 kbps Galfimbul 4591981244 MB 0 0 1322396273

15:17

27-Ноя-11

Еще никто не оставлял запись к записи скачать торрент Доктор кто: Музыка из Десятой планеты Dr. Who: Music From The Tenth Planet . Будь первым!

!Обратная связь