Скачать через торрент музыку Доктор кто: Лучшее The Best of Doctor Who бесплатно без регистрации torrent

Если у вас наблюдаются проблемы со скриншотами, переходом по ссылками, скачиванием торрентов - проблемы в блокировщике рекламы AdBlock. #хорошегоДня!


Статистика раздачи
Размер:  746 MB   |    Зарегистрирован:  5 лет 9 месяцев   |    .torrent скачан:  32 раза   |   
Раздают:  1  
   
Загрузка...
 
Автор Сообщение

Galfimbul

avatar Galfimbul



Доктор кто: Лучшее / The Best of Doctor Who

Music by Ron Grainer, Malcolm Clarke, Dudley Simpson, Roger Limb, Peter Howell, Jonathan Gibbs, Mark Ayres and Keff McCulloch

Жанр: Score | Годы выпуска дисков: 1993-1994

Аудиокодек: FLAC (*.flac) | Тип рипа: tracks+.cue | Битрейт аудио: lossless

Источник: WhatCD
Год выпуска диска: 1993
Издатель (лейбл): Silva America
Номер по каталогу: SSD 1014
Продолжительность: 01:13:18

Композиторы: Ron Grainer, Malcolm Clarke, Dudley Simpson,
Roger Limb, Peter Howell, Jonathan Gibbs

<div style="margin-left: 2em">01. Ron Grainer - Tardis - Doctor Who (Original Version) [02:39]
02. Malcolm Clarke - The Sea Devils [05:22]
03. Dudley Simpson - The World of Doctor Who [02:41]
04. Roger Limb - The Keeper of Traken [02:27]
05. Peter Howell - The Leisure Hive [05:35]
06. Peter Howell - Three Themes [03:31]
07. Malcolm Clarke - Earthshock [08:25]
08. Ron Grainer - Doctor Who - Reprise (Original Version) [01:27]
09. Peter Howell - The Five Doctors [08:42]
10. Ron Grainer - Doctor Who - 1980 [02:56]
11. Malcolm Clarke - Enlightenment [07:53]
12. Jonathan Gibbs - The King's Demons [05:21]
13. Malcolm Clarke - The Resurrection of the Daleks [05:04]
14. Roger Limb - The Caves of Androzani [06:03]
15. Ron Grainer - Doctor Who - Terror Version [04:12]
16. Ron Grainer - Doctor Who - 1980 (Reprise) [00:53]</div>
 
Exact Audio Copy V0.99 prebeta 5 from 4. May 2009

EAC extraction logfile from 3. October 2010, 1:14

Various / The Best of Doctor Who Volume 1

Used drive : TSSTcorpDVD+-RW TS-H653F Adapter: 4 ID: 0

Read mode : SecureUtilize accurate stream : YesDefeat audio cache : YesMake use of C2 pointers : No

Read offset correction : 6Overread into Lead-In and Lead-Out : NoFill up missing offset samples with silence : YesDelete leading and trailing silent blocks : NoNull samples used in CRC calculations : YesUsed interface : Installed external ASPI interfaceGap handling : Appended to previous track

Used output format : User Defined EncoderSelected bitrate : 1024 kBit/sQuality : HighAdd ID3 tag : NoCommand line compressor : C:\Program Files\Exact Audio Copy\FLAC\FLAC.EXEAdditional command line options : -6 -V -T "ARTIST=%a" -T "TITLE=%t" -T "ALBUM=%g" -T "DATE=%y" -T "TRACKNUMBER=%n" -T "GENRE=%m" -T "COMMENT=%e" %s -o %d

TOC of the extracted CD

Track | Start | Length | Start sector | End sector --------------------------------------------------------- 1 | 0:00.00 | 2:39.47 | 0 | 11971 2 | 2:39.47 | 5:22.65 | 11972 | 36186 3 | 8:02.37 | 2:41.58 | 36187 | 48319 4 | 10:44.20 | 2:27.00 | 48320 | 59344 5 | 13:11.20 | 5:35.00 | 59345 | 84469 6 | 18:46.20 | 3:31.02 | 84470 | 100296 7 | 22:17.22 | 8:25.20 | 100297 | 138191 8 | 30:42.42 | 1:27.48 | 138192 | 144764 9 | 32:10.15 | 8:42.55 | 144765 | 183969 10 | 40:52.70 | 2:56.02 | 183970 | 197171 11 | 43:48.72 | 7:53.55 | 197172 | 232701 12 | 51:42.52 | 5:21.50 | 232702 | 256826 13 | 57:04.27 | 5:04.45 | 256827 | 279671 14 | 62:08.72 | 6:03.58 | 279672 | 306954 15 | 68:12.55 | 4:12.10 | 306955 | 325864 16 | 72:24.65 | 0:53.22 | 325865 | 329861

Track 1

Filename C:\EAC Rips\01 Tardis - Doctor Who (Original Version).wav

Pre-gap length 0:00:02.00

Peak level 72.0 % Track quality 100.0 % Test CRC 1612756F Copy CRC 1612756F Accurately ripped (confidence 5) [20E0F81D] Copy OK

Track 2

Filename C:\EAC Rips\02 The Sea Devils.wav

Pre-gap length 0:00:02.26

Peak level 100.0 % Track quality 100.0 % Test CRC ACF9B7E6 Copy CRC ACF9B7E6 Accurately ripped (confidence 5) [B4FDB4FE] Copy OK

Track 3

Filename C:\EAC Rips\03 The World of Doctor Who.wav

Pre-gap length 0:00:02.22

Peak level 100.0 % Track quality 100.0 % Test CRC 1A146FAC Copy CRC 1A146FAC Accurately ripped (confidence 5) [43821CC7] Copy OK

Track 4

Filename C:\EAC Rips\04 The Keeper of Traken.wav

Pre-gap length 0:00:02.70

Peak level 93.9 % Track quality 100.0 % Test CRC E8409747 Copy CRC E8409747 Accurately ripped (confidence 5) [39ECDC27] Copy OK

Track 5

Filename C:\EAC Rips\05 The Leisure Hive.wav

Pre-gap length 0:00:02.06

Peak level 100.0 % Track quality 100.0 % Test CRC 928280A5 Copy CRC 928280A5 Accurately ripped (confidence 5) [D36C25BF] Copy OK

Track 6

Filename C:\EAC Rips\06 Three Themes.wav

Pre-gap length 0:00:02.37

Peak level 70.3 % Track quality 100.0 % Test CRC 91207689 Copy CRC 91207689 Accurately ripped (confidence 5) [A3A94CF7] Copy OK

Track 7

Filename C:\EAC Rips\07 Earthshock.wav

Pre-gap length 0:00:02.13

Peak level 100.0 % Track quality 100.0 % Test CRC F1E7BECE Copy CRC F1E7BECE Accurately ripped (confidence 5) [32AA2E1C] Copy OK

Track 8

Filename C:\EAC Rips\08 Doctor Who - Reprise (Original Version).wav

Peak level 46.8 % Track quality 99.8 % Test CRC 5D07C1B5 Copy CRC 5D07C1B5 Accurately ripped (confidence 5) [66AAFBEF] Copy OK

Track 9

Filename C:\EAC Rips\09 The Five Doctors.wav

Pre-gap length 0:00:02.33

Peak level 64.2 % Track quality 100.0 % Test CRC BB8DB7A5 Copy CRC BB8DB7A5 Accurately ripped (confidence 5) [0315B1CF] Copy OK

Track 10

Filename C:\EAC Rips\10 Doctor Who - 1980.wav

Peak level 86.6 % Track quality 100.0 % Test CRC 3AFE54AA Copy CRC 3AFE54AA Accurately ripped (confidence 5) [569391E2] Copy OK

Track 11

Filename C:\EAC Rips\11 Enlightenment.wav

Pre-gap length 0:00:14.02

Peak level 64.4 % Track quality 100.0 % Test CRC A2B4FAC2 Copy CRC A2B4FAC2 Accurately ripped (confidence 5) [869E5DDD] Copy OK

Track 12

Filename C:\EAC Rips\12 The King's Demons.wav

Pre-gap length 0:00:02.13

Peak level 52.6 % Track quality 100.0 % Test CRC 67D1FB76 Copy CRC 67D1FB76 Accurately ripped (confidence 5) [DC9D701A] Copy OK

Track 13

Filename C:\EAC Rips\13 The Resurrection of the Daleks.wav

Pre-gap length 0:00:02.22

Peak level 83.5 % Track quality 100.0 % Test CRC CBD48DD7 Copy CRC CBD48DD7 Accurately ripped (confidence 5) [034D196C] Copy OK

Track 14

Filename C:\EAC Rips\14 The Caves of Androzani.wav

Pre-gap length 0:00:02.26

Peak level 99.5 % Track quality 100.0 % Test CRC AAD2141B Copy CRC AAD2141B Accurately ripped (confidence 5) [4BE4ED1F] Copy OK

Track 15

Filename C:\EAC Rips\15 Doctor Who - Terror Version.wav

Peak level 97.8 % Track quality 100.0 % Test CRC 954ADAE9 Copy CRC 954ADAE9 Accurately ripped (confidence 5) [AE2301E1] Copy OK

Track 16

Filename C:\EAC Rips\16 Doctor Who - 1980 (Reprise).wav

Peak level 78.0 % Track quality 100.0 % Test CRC 7FB59625 Copy CRC 7FB59625 Accurately ripped (confidence 5) [A77277DA] Copy OK

All tracks accurately ripped

No errors occurred

End of status report
 
REM GENRE SoundtrackREM DATE 1993REM DISCID D9112E10REM COMMENT "ExactAudioCopy v0.99pb5"FILE "01 Tardis - Doctor Who (Original Version).wav" WAVE TRACK 01 AUDIO INDEX 01 00:00:00 TRACK 02 AUDIO INDEX 00 02:37:27FILE "02 The Sea Devils.wav" WAVE INDEX 01 00:00:00 TRACK 03 AUDIO INDEX 00 05:20:48FILE "03 The World of Doctor Who.wav" WAVE INDEX 01 00:00:00 TRACK 04 AUDIO INDEX 00 02:39:05FILE "04 The Keeper of Traken.wav" WAVE INDEX 01 00:00:00 TRACK 05 AUDIO INDEX 00 02:24:70FILE "05 The Leisure Hive.wav" WAVE INDEX 01 00:00:00 TRACK 06 AUDIO INDEX 00 05:32:47FILE "06 Three Themes.wav" WAVE INDEX 01 00:00:00 TRACK 07 AUDIO INDEX 00 03:28:67FILE "07 Earthshock.wav" WAVE INDEX 01 00:00:00FILE "08 Doctor Who - Reprise (Original Version).wav" WAVE TRACK 08 AUDIO INDEX 01 00:00:00 TRACK 09 AUDIO INDEX 00 01:25:23FILE "09 The Five Doctors.wav" WAVE INDEX 01 00:00:00FILE "10 Doctor Who - 1980.wav" WAVE TRACK 10 AUDIO INDEX 01 00:00:00 TRACK 11 AUDIO INDEX 00 02:42:00FILE "11 Enlightenment.wav" WAVE INDEX 01 00:00:00 TRACK 12 AUDIO INDEX 00 07:51:45FILE "12 The King's Demons.wav" WAVE INDEX 01 00:00:00 TRACK 13 AUDIO INDEX 00 05:19:33FILE "13 The Resurrection of the Daleks.wav" WAVE INDEX 01 00:00:00 TRACK 14 AUDIO INDEX 00 05:02:25FILE "14 The Caves of Androzani.wav" WAVE INDEX 01 00:00:00FILE "15 Doctor Who - Terror Version.wav" WAVE TRACK 15 AUDIO INDEX 01 00:00:00FILE "16 Doctor Who - 1980 (Reprise).wav" WAVE TRACK 16 AUDIO INDEX 01 00:00:00
 
REM GENRE SoundtrackREM DATE 1993REM DISCID D9112E10REM COMMENT "ExactAudioCopy v0.99pb5"PERFORMER "Various Artists"TITLE "The Best of Doctor Who Volume 1"FILE "01 Tardis - Doctor Who (Original Version).wav" WAVE TRACK 01 AUDIO TITLE "Tardis - Doctor Who (Original Version)" PERFORMER "Ron Grainer" INDEX 01 00:00:00 TRACK 02 AUDIO TITLE "The Sea Devils" PERFORMER "Malcolm Clarke" INDEX 00 02:37:27FILE "02 The Sea Devils.wav" WAVE INDEX 01 00:00:00 TRACK 03 AUDIO TITLE "The World of Doctor Who" PERFORMER "Dudley Simpson" INDEX 00 05:20:48FILE "03 The World of Doctor Who.wav" WAVE INDEX 01 00:00:00 TRACK 04 AUDIO TITLE "The Keeper of Traken" PERFORMER "Roger Limb" INDEX 00 02:39:05FILE "04 The Keeper of Traken.wav" WAVE INDEX 01 00:00:00 TRACK 05 AUDIO TITLE "The Leisure Hive" PERFORMER "Peter Howell" INDEX 00 02:24:70FILE "05 The Leisure Hive.wav" WAVE INDEX 01 00:00:00 TRACK 06 AUDIO TITLE "Three Themes" PERFORMER "Peter Howell" INDEX 00 05:32:47FILE "06 Three Themes.wav" WAVE INDEX 01 00:00:00 TRACK 07 AUDIO TITLE "Earthshock" PERFORMER "Malcolm Clarke" INDEX 00 03:28:67FILE "07 Earthshock.wav" WAVE INDEX 01 00:00:00FILE "08 Doctor Who - Reprise (Original Version).wav" WAVE TRACK 08 AUDIO TITLE "Doctor Who - Reprise (Original Version)" PERFORMER "Ron Grainer" INDEX 01 00:00:00 TRACK 09 AUDIO TITLE "The Five Doctors" PERFORMER "Peter Howell" INDEX 00 01:25:23FILE "09 The Five Doctors.wav" WAVE INDEX 01 00:00:00FILE "10 Doctor Who - 1980.wav" WAVE TRACK 10 AUDIO TITLE "Doctor Who - 1980" PERFORMER "Ron Grainer" INDEX 01 00:00:00 TRACK 11 AUDIO TITLE "Enlightenment" PERFORMER "Malcolm Clarke" INDEX 00 02:42:00FILE "11 Enlightenment.wav" WAVE INDEX 01 00:00:00 TRACK 12 AUDIO TITLE "The King's Demons" PERFORMER "Jonathan Gibbs" INDEX 00 07:51:45FILE "12 The King's Demons.wav" WAVE INDEX 01 00:00:00 TRACK 13 AUDIO TITLE "The Resurrection of the Daleks" PERFORMER "Malcolm Clarke" INDEX 00 05:19:33FILE "13 The Resurrection of the Daleks.wav" WAVE INDEX 01 00:00:00 TRACK 14 AUDIO TITLE "The Caves of Androzani" PERFORMER "Roger Limb" INDEX 00 05:02:25FILE "14 The Caves of Androzani.wav" WAVE INDEX 01 00:00:00FILE "15 Doctor Who - Terror Version.wav" WAVE TRACK 15 AUDIO TITLE "Doctor Who - Terror Version" PERFORMER "Ron Grainer" INDEX 01 00:00:00FILE "16 Doctor Who - 1980 (Reprise).wav" WAVE TRACK 16 AUDIO TITLE "Doctor Who - 1980 (Reprise)" PERFORMER "Ron Grainer" INDEX 01 00:00:00
 
AUDIOCHECKER v2.0 beta (build 457) - by Dester - opdester@freemail.hu~~~~~~~~~~~~~~~~~~~~~~~~~~~~~~~~~~-=== НЕ РЕДАКТИРУЙТЕ ЭТОТ ФАЙЛ! ===-

Путь: ...\1983 - The Best of Doctor Who Volume 1 [Ron Grainer and VA] FLAC

01 -=- 01 Tardis - Doctor Who (Original Version).flac -=- CDDA (100%)02 -=- 02 The Sea Devils.flac -=- CDDA (87%)03 -=- 03 The World of Doctor Who.flac -=- CDDA (100%)04 -=- 04 The Keeper of Traken.flac -=- CDDA (100%)05 -=- 05 The Leisure Hive.flac -=- CDDA (100%)06 -=- 06 Three Themes.flac -=- CDDA (100%)07 -=- 07 Earthshock.flac -=- CDDA (100%)08 -=- 08 Doctor Who - Reprise (Original Version).flac -=- CDDA (100%)09 -=- 09 The Five Doctors.flac -=- CDDA (100%)10 -=- 10 Doctor Who - 1980.flac -=- CDDA (100%)11 -=- 11 Enlightenment.flac -=- CDDA (100%)12 -=- 12 The King's Demons.flac -=- CDDA (100%)13 -=- 13 The Resurrection of the Daleks.flac -=- CDDA (99%)14 -=- 14 The Caves of Androzani.flac -=- CDDA (100%)15 -=- 15 Doctor Who - Terror Version.flac -=- CDDA (100%)16 -=- 16 Doctor Who - 1980 (Reprise).flac -=- CDDA (100%)

Сводка 99,13% CDDA

137840612
Год выпуска диска: 1994
Издатель (лейбл): Silva America
Номер по каталогу: SSD 1042
Продолжительность: 01:19:25

Композиторы: Mark Ayres and Keff McCulloch

<div style="margin-left: 2em">01. Keff McCulloch - Doctor Who (Main Title Theme) [00:54]
02. Mark Ayres - Invitation to Segonax [03:46]
03. Mark Ayres - Bellboy & Flowerchild/Fellow Explorers [02:22]
04. Mark Ayres - The Robot Attacks [01:04]
05. Mark Ayres - Something Sinister [01:38]
06. Mark Ayres - The Circus Ring/Eavesdropping [02:15]
07. Mark Ayres - Stone Archway [01:45]
08. Mark Ayres - The Well [01:04]
09. Mark Ayres - Bellboy's Sacrifice [02:56]
10. Mark Ayres - The Werewolf/'Request Stop' [05:49]
11. Mark Ayres - Playing for Time [05:02]
12. Mark Ayres - The Madhouse [03:26]
13. Mark Ayres - Uncharted Territory [01:37]
14. Mark Ayres - Heart of the Interior/Nimrod Observed [01:48]
15. Mark Ayres - Time to Emerge [01:19]
16. Mark Ayres - Ace's Adventures Underground [01:51]
17. Mark Ayres - The Memory Teller [01:34]
18. Mark Ayres - Homo Victorianus Ineptus [01:18]
19. Mark Ayres - Out of the Shadows [02:38]
20. Mark Ayres - Tricks of the Light [01:31]
21. Mark Ayres - Judgement in Stone [02:14]
22. Mark Ayres - Requiem/Passing Thoughts [03:47]
23. Mark Ayres - The Boats [00:43]
24. Mark Ayres - Rat-Trap [01:02]
25. Mark Ayres - Sealed Orders [01:19]
26. Mark Ayres - Commander Millington [00:46]
27. Mark Ayres - Maiden's Point [01:17]
28. Mark Ayres - The Translations [01:36]
29. Mark Ayres - The Well of Vergelmir [01:15]
30. Mark Ayres - The Ultima Machine [01:27]
31. Mark Ayres - Stop the Machine! [02:23]
32. Mark Ayres - Vampire City! [05:14]
33. Mark Ayres - The Telegram [00:49]
34. Mark Ayres - Evil from the Dawn of Time [01:10]
35. Mark Ayres - Shadow Dimensions/The Great Serpent [01:02]
36. Mark Ayres - Pawns in the Game [01:12]
37. Mark Ayres - Black Wins, Time Lord! [02:18]
38. Mark Ayres - The Final Battle [02:46]
39. Keff McCulloch - Doctor Who (End Title Theme) [01:12]</div>
 
Exact Audio Copy V0.99 prebeta 5 from 4. May 2009

EAC extraction logfile from 3. October 2010, 3:09

Various / The Best of Doctor Who Volume 2

Used drive : TSSTcorpDVD+-RW TS-H653F Adapter: 4 ID: 0

Read mode : SecureUtilize accurate stream : YesDefeat audio cache : YesMake use of C2 pointers : No

Read offset correction : 6Overread into Lead-In and Lead-Out : NoFill up missing offset samples with silence : YesDelete leading and trailing silent blocks : NoNull samples used in CRC calculations : YesUsed interface : Installed external ASPI interfaceGap handling : Appended to previous track

Used output format : User Defined EncoderSelected bitrate : 1024 kBit/sQuality : HighAdd ID3 tag : NoCommand line compressor : C:\Program Files\Exact Audio Copy\FLAC\FLAC.EXEAdditional command line options : -6 -V -T "ARTIST=%a" -T "TITLE=%t" -T "ALBUM=%g" -T "DATE=%y" -T "TRACKNUMBER=%n" -T "GENRE=%m" -T "COMMENT=%e" %s -o %d

TOC of the extracted CD

Track | Start | Length | Start sector | End sector --------------------------------------------------------- 1 | 0:00.00 | 0:54.02 | 0 | 4051 2 | 0:54.02 | 3:46.18 | 4052 | 21019 3 | 4:40.20 | 2:22.07 | 21020 | 31676 4 | 7:02.27 | 1:04.63 | 31677 | 36539 5 | 8:07.15 | 1:38.15 | 36540 | 43904 6 | 9:45.30 | 2:15.57 | 43905 | 54086 7 | 12:01.12 | 1:45.30 | 54087 | 61991 8 | 13:46.42 | 1:04.05 | 61992 | 66796 9 | 14:50.47 | 2:56.35 | 66797 | 80031 10 | 17:47.07 | 5:49.30 | 80032 | 106236 11 | 23:36.37 | 5:02.58 | 106237 | 128944 12 | 28:39.20 | 3:26.02 | 128945 | 144396 13 | 32:05.22 | 1:37.45 | 144397 | 151716 14 | 33:42.67 | 1:48.28 | 151717 | 159844 15 | 35:31.20 | 1:19.55 | 159845 | 165824 16 | 36:51.00 | 1:51.27 | 165825 | 174176 17 | 38:42.27 | 1:34.65 | 174177 | 181291 18 | 40:17.17 | 1:18.08 | 181292 | 187149 19 | 41:35.25 | 2:38.00 | 187150 | 198999 20 | 44:13.25 | 1:31.40 | 199000 | 205864 21 | 45:44.65 | 2:14.40 | 205865 | 215954 22 | 47:59.30 | 3:47.17 | 215955 | 232996 23 | 51:46.47 | 0:43.43 | 232997 | 236264 24 | 52:30.15 | 1:02.15 | 236265 | 240929 25 | 53:32.30 | 1:19.52 | 240930 | 246906 26 | 54:52.07 | 0:46.68 | 246907 | 250424 27 | 55:39.00 | 1:17.00 | 250425 | 256199 28 | 56:56.00 | 1:36.40 | 256200 | 263439 29 | 58:32.40 | 1:15.22 | 263440 | 269086 30 | 59:47.62 | 1:27.25 | 269087 | 275636 31 | 61:15.12 | 2:23.35 | 275637 | 286396 32 | 63:38.47 | 5:14.55 | 286397 | 310001 33 | 68:53.27 | 0:49.73 | 310002 | 313749 34 | 69:43.25 | 1:10.02 | 313750 | 319001 35 | 70:53.27 | 1:02.23 | 319002 | 323674 36 | 71:55.50 | 1:12.20 | 323675 | 329094 37 | 73:07.70 | 2:18.27 | 329095 | 339471 38 | 75:26.22 | 2:46.33 | 339472 | 351954 39 | 78:12.55 | 1:12.65 | 351955 | 357419

Track 1

Filename C:\EAC Rips\01 Doctor Who (Main Title Theme).wav

Pre-gap length 0:00:02.00

Peak level 92.8 % Track quality 100.0 % Test CRC 49365BD6 Copy CRC 49365BD6 Accurately ripped (confidence 3) [9B288BC4] Copy OK

Track 2

Filename C:\EAC Rips\02 Invitation to Segonax.wav

Pre-gap length 0:00:00.02

Peak level 100.0 % Track quality 100.0 % Test CRC 3642A126 Copy CRC 3642A126 Accurately ripped (confidence 3) [8E459FEA] Copy OK

Track 3

Filename C:\EAC Rips\03 Bellboy & Flowerchild,Fellow Explorers.wav

Pre-gap length 0:00:00.04

Peak level 99.9 % Track quality 99.9 % Test CRC BD2F09D6 Copy CRC BD2F09D6 Accurately ripped (confidence 3) [421BC921] Copy OK

Track 4

Filename C:\EAC Rips\04 The Robot Attacks.wav

Pre-gap length 0:00:00.02

Peak level 99.8 % Track quality 100.0 % Test CRC 86636166 Copy CRC 86636166 Accurately ripped (confidence 3) [A5FB0EBA] Copy OK

Track 5

Filename C:\EAC Rips\05 Something Sinister.wav

Pre-gap length 0:00:00.04

Peak level 96.9 % Track quality 100.0 % Test CRC F297AC3B Copy CRC F297AC3B Accurately ripped (confidence 3) [68825D6F] Copy OK

Track 6

Filename C:\EAC Rips\06 The Circus Ring,Eavesdropping.wav

Pre-gap length 0:00:00.04

Peak level 100.0 % Track quality 100.0 % Test CRC 48ECB433 Copy CRC 48ECB433 Accurately ripped (confidence 3) [DD3992FC] Copy OK

Track 7

Filename C:\EAC Rips\07 Stone Archway.wav

Pre-gap length 0:00:00.02

Peak level 90.8 % Track quality 100.0 % Test CRC 9812A23B Copy CRC 9812A23B Accurately ripped (confidence 3) [46850B8D] Copy OK

Track 8

Filename C:\EAC Rips\08 The Well.wav

Pre-gap length 0:00:00.02

Peak level 90.3 % Track quality 99.8 % Test CRC B5D73A84 Copy CRC B5D73A84 Accurately ripped (confidence 3) [7A0E4F6E] Copy OK

Track 9

Filename C:\EAC Rips\09 Bellboy's Sacrifice.wav

Pre-gap length 0:00:00.02

Peak level 100.0 % Track quality 100.0 % Test CRC 4E1B5B99 Copy CRC 4E1B5B99 Accurately ripped (confidence 3) [F7FD9159] Copy OK

Track 10

Filename C:\EAC Rips\10 The Werewolf,'Request Stop'.wav

Pre-gap length 0:00:00.02

Peak level 100.0 % Track quality 100.0 % Test CRC 2F4A36AD Copy CRC 2F4A36AD Accurately ripped (confidence 3) [5F7303F0] Copy OK

Track 11

Filename C:\EAC Rips\11 Playing for Time.wav

Pre-gap length 0:00:00.02

Peak level 100.0 % Track quality 100.0 % Test CRC 530C0B34 Copy CRC 530C0B34 Accurately ripped (confidence 3) [83D3CD76] Copy OK

Track 12

Filename C:\EAC Rips\12 The Madhouse.wav

Pre-gap length 0:00:05.90

Peak level 97.6 % Track quality 100.0 % Test CRC 6CD3B2EA Copy CRC 6CD3B2EA Accurately ripped (confidence 3) [E976DE70] Copy OK

Track 13

Filename C:\EAC Rips\13 Uncharted Territory.wav

Pre-gap length 0:00:00.02

Peak level 96.4 % Track quality 100.0 % Test CRC 1E8A04C6 Copy CRC 1E8A04C6 Accurately ripped (confidence 3) [906A8CB0] Copy OK

Track 14

Filename C:\EAC Rips\14 Heart of the Interior,Nimrod Observed.wav

Pre-gap length 0:00:00.02

Peak level 99.8 % Track quality 100.0 % Test CRC E18BAEE4 Copy CRC E18BAEE4 Accurately ripped (confidence 3) [E76345B1] Copy OK

Track 15

Filename C:\EAC Rips\15 Time to Emerge.wav

Pre-gap length 0:00:00.04

Peak level 88.7 % Track quality 100.0 % Test CRC D711BEDC Copy CRC D711BEDC Accurately ripped (confidence 3) [D10E6376] Copy OK

Track 16

Filename C:\EAC Rips\16 Ace's Adventures Underground.wav

Pre-gap length 0:00:00.04

Peak level 99.8 % Track quality 100.0 % Test CRC 1549BC09 Copy CRC 1549BC09 Accurately ripped (confidence 3) [70EDA138] Copy OK

Track 17

Filename C:\EAC Rips\17 The Memory Teller.wav

Pre-gap length 0:00:00.02

Peak level 82.6 % Track quality 100.0 % Test CRC 190851CB Copy CRC 190851CB Accurately ripped (confidence 3) [0CE7492A] Copy OK

Track 18

Filename C:\EAC Rips\18 Homo Victorianus Ineptus.wav

Pre-gap length 0:00:00.02

Peak level 87.6 % Track quality 100.0 % Test CRC 98A4B7BA Copy CRC 98A4B7BA Accurately ripped (confidence 3) [D2D4FF98] Copy OK

Track 19

Filename C:\EAC Rips\19 Out of the Shadows.wav

Pre-gap length 0:00:00.04

Peak level 99.9 % Track quality 100.0 % Test CRC 2578E20F Copy CRC 2578E20F Accurately ripped (confidence 3) [D7D60440] Copy OK

Track 20

Filename C:\EAC Rips\20 Tricks of the Light.wav

Pre-gap length 0:00:00.04

Peak level 99.9 % Track quality 100.0 % Test CRC 58D48DDE Copy CRC 58D48DDE Accurately ripped (confidence 3) [9C1A2042] Copy OK

Track 21

Filename C:\EAC Rips\21 Judgement in Stone.wav

Pre-gap length 0:00:00.04

Peak level 95.3 % Track quality 100.0 % Test CRC 044B35BD Copy CRC 044B35BD Accurately ripped (confidence 3) [E0C25FD1] Copy OK

Track 22

Filename C:\EAC Rips\22 Requiem,Passing Thoughts.wav

Pre-gap length 0:00:00.04

Peak level 77.7 % Track quality 100.0 % Test CRC 5B1F7E07 Copy CRC 5B1F7E07 Accurately ripped (confidence 3) [CE23EB00] Copy OK

Track 23

Filename C:\EAC Rips\23 The Boats.wav

Pre-gap length 0:00:04.49

Peak level 74.9 % Track quality 100.0 % Test CRC 94A7002D Copy CRC 94A7002D Accurately ripped (confidence 3) [730F7C14] Copy OK

Track 24

Filename C:\EAC Rips\24 Rat-Trap.wav

Pre-gap length 0:00:00.04

Peak level 93.5 % Track quality 100.0 % Test CRC 04297B1E Copy CRC 04297B1E Accurately ripped (confidence 3) [1C449BF6] Copy OK

Track 25

Filename C:\EAC Rips\25 Sealed Orders.wav

Pre-gap length 0:00:00.04

Peak level 92.5 % Track quality 99.8 % Test CRC 399EC946 Copy CRC 399EC946 Accurately ripped (confidence 3) [B3954EBB] Copy OK

Track 26

Filename C:\EAC Rips\26 Commander Millington.wav

Pre-gap length 0:00:00.02

Peak level 80.1 % Track quality 100.0 % Test CRC 58B59AB9 Copy CRC 58B59AB9 Accurately ripped (confidence 3) [8C275D69] Copy OK

Track 27

Filename C:\EAC Rips\27 Maiden's Point.wav

Pre-gap length 0:00:00.04

Peak level 85.6 % Track quality 100.0 % Test CRC C52A3378 Copy CRC C52A3378 Accurately ripped (confidence 3) [D902C254] Copy OK

Track 28

Filename C:\EAC Rips\28 The Translations.wav

Pre-gap length 0:00:00.04

Peak level 95.8 % Track quality 100.0 % Test CRC 76727ADE Copy CRC 76727ADE Accurately ripped (confidence 3) [8BA8DD2B] Copy OK

Track 29

Filename C:\EAC Rips\29 The Well of Vergelmir.wav

Pre-gap length 0:00:00.04

Peak level 48.7 % Track quality 100.0 % Test CRC 5D2612A5 Copy CRC 5D2612A5 Accurately ripped (confidence 3) [F0D7DE61] Copy OK

Track 30

Filename C:\EAC Rips\30 The Ultima Machine.wav

Pre-gap length 0:00:00.02

Peak level 92.1 % Track quality 99.8 % Test CRC 366DAB47 Copy CRC 366DAB47 Accurately ripped (confidence 3) [BC8E2E61] Copy OK

Track 31

Filename C:\EAC Rips\31 Stop the Machine!.wav

Pre-gap length 0:00:00.02

Peak level 99.9 % Track quality 99.9 % Test CRC 36E5A9B8 Copy CRC 36E5A9B8 Accurately ripped (confidence 3) [814DFF0C] Copy OK

Track 32

Filename C:\EAC Rips\32 Vampire City!.wav

Pre-gap length 0:00:00.02

Peak level 99.7 % Track quality 100.0 % Test CRC EE3FC9C7 Copy CRC EE3FC9C7 Accurately ripped (confidence 3) [24C826EF] Copy OK

Track 33

Filename C:\EAC Rips\33 The Telegram.wav

Pre-gap length 0:00:00.02

Peak level 64.1 % Track quality 100.0 % Test CRC E1EEC6D8 Copy CRC E1EEC6D8 Accurately ripped (confidence 3) [213A074C] Copy OK

Track 34

Filename C:\EAC Rips\34 Evil from the Dawn of Time.wav

Pre-gap length 0:00:00.04

Peak level 77.3 % Track quality 100.0 % Test CRC 36B4148B Copy CRC 36B4148B Accurately ripped (confidence 3) [F8D1DC02] Copy OK

Track 35

Filename C:\EAC Rips\35 Shadow Dimensions,The Great Serpent.wav

Pre-gap length 0:00:00.02

Peak level 99.7 % Track quality 100.0 % Test CRC 590A7E28 Copy CRC 590A7E28 Accurately ripped (confidence 3) [0529AB93] Copy OK

Track 36

Filename C:\EAC Rips\36 Pawns in the Game.wav

Pre-gap length 0:00:00.04

Peak level 89.0 % Track quality 100.0 % Test CRC AB174A62 Copy CRC AB174A62 Accurately ripped (confidence 3) [DF9DB608] Copy OK

Track 37

Filename C:\EAC Rips\37 Black Wins, Time Lord!.wav

Pre-gap length 0:00:00.04

Peak level 89.0 % Track quality 100.0 % Test CRC A124694C Copy CRC A124694C Accurately ripped (confidence 3) [AAD66FAD] Copy OK

Track 38

Filename C:\EAC Rips\38 The Final Battle.wav

Pre-gap length 0:00:00.02

Peak level 89.0 % Track quality 100.0 % Test CRC 25E0B17B Copy CRC 25E0B17B Accurately ripped (confidence 3) [6F5D0F4A] Copy OK

Track 39

Filename C:\EAC Rips\39 Doctor Who (End Title Theme).wav

Pre-gap length 0:00:00.04

Peak level 79.0 % Track quality 100.0 % Test CRC C8200D7F Copy CRC C8200D7F Accurately ripped (confidence 3) [71526683] Copy OK

All tracks accurately ripped

No errors occurred

End of status report
 
REM GENRE SoundtrackREM DATE 1994REM DISCID 55129D27REM COMMENT "ExactAudioCopy v0.99pb5"FILE "01 Doctor Who (Main Title Theme).wav" WAVE TRACK 01 AUDIO INDEX 01 00:00:00 TRACK 02 AUDIO INDEX 00 00:54:00FILE "02 Invitation to Segonax.wav" WAVE INDEX 01 00:00:00 INDEX 02 00:40:60 INDEX 03 01:56:35 TRACK 03 AUDIO INDEX 00 03:46:15FILE "03 Bellboy & Flowerchild,Fellow Explorers.wav" WAVE INDEX 01 00:00:00 INDEX 02 01:02:70 TRACK 04 AUDIO INDEX 00 02:22:05FILE "04 The Robot Attacks.wav" WAVE INDEX 01 00:00:00 TRACK 05 AUDIO INDEX 00 01:04:60FILE "05 Something Sinister.wav" WAVE INDEX 01 00:00:00 TRACK 06 AUDIO INDEX 00 01:38:12FILE "06 The Circus Ring,Eavesdropping.wav" WAVE INDEX 01 00:00:00 INDEX 02 01:28:65 TRACK 07 AUDIO INDEX 00 02:15:55FILE "07 Stone Archway.wav" WAVE INDEX 01 00:00:00 TRACK 08 AUDIO INDEX 00 01:45:28FILE "08 The Well.wav" WAVE INDEX 01 00:00:00 TRACK 09 AUDIO INDEX 00 01:04:03FILE "09 Bellboy's Sacrifice.wav" WAVE INDEX 01 00:00:00 TRACK 10 AUDIO INDEX 00 02:56:33FILE "10 The Werewolf,'Request Stop'.wav" WAVE INDEX 01 00:00:00 INDEX 02 04:22:05 TRACK 11 AUDIO INDEX 00 05:49:28FILE "11 Playing for Time.wav" WAVE INDEX 01 00:00:00 TRACK 12 AUDIO INDEX 00 04:56:65FILE "12 The Madhouse.wav" WAVE INDEX 01 00:00:00 INDEX 02 01:23:17 INDEX 03 02:27:12 TRACK 13 AUDIO INDEX 00 03:26:00FILE "13 Uncharted Territory.wav" WAVE INDEX 01 00:00:00 TRACK 14 AUDIO INDEX 00 01:37:43FILE "14 Heart of the Interior,Nimrod Observed.wav" WAVE INDEX 01 00:00:00 INDEX 02 00:51:55 TRACK 15 AUDIO INDEX 00 01:48:25FILE "15 Time to Emerge.wav" WAVE INDEX 01 00:00:00 TRACK 16 AUDIO INDEX 00 01:19:52FILE "16 Ace's Adventures Underground.wav" WAVE INDEX 01 00:00:00 INDEX 02 00:21:22 INDEX 03 00:39:30 TRACK 17 AUDIO INDEX 00 01:51:25FILE "17 The Memory Teller.wav" WAVE INDEX 01 00:00:00 TRACK 18 AUDIO INDEX 00 01:34:63FILE "18 Homo Victorianus Ineptus.wav" WAVE INDEX 01 00:00:00 TRACK 19 AUDIO INDEX 00 01:18:05FILE "19 Out of the Shadows.wav" WAVE INDEX 01 00:00:00 INDEX 02 02:03:67 TRACK 20 AUDIO INDEX 00 02:37:72FILE "20 Tricks of the Light.wav" WAVE INDEX 01 00:00:00 TRACK 21 AUDIO INDEX 00 01:31:37FILE "21 Judgement in Stone.wav" WAVE INDEX 01 00:00:00 TRACK 22 AUDIO INDEX 00 02:14:37FILE "22 Requiem,Passing Thoughts.wav" WAVE INDEX 01 00:00:00 INDEX 02 03:01:35 TRACK 23 AUDIO INDEX 00 03:42:55FILE "23 The Boats.wav" WAVE INDEX 01 00:00:00 TRACK 24 AUDIO INDEX 00 00:43:40FILE "24 Rat-Trap.wav" WAVE INDEX 01 00:00:00 TRACK 25 AUDIO INDEX 00 01:02:12FILE "25 Sealed Orders.wav" WAVE INDEX 01 00:00:00 TRACK 26 AUDIO INDEX 00 01:19:50FILE "26 Commander Millington.wav" WAVE INDEX 01 00:00:00 TRACK 27 AUDIO INDEX 00 00:46:65FILE "27 Maiden's Point.wav" WAVE INDEX 01 00:00:00 TRACK 28 AUDIO INDEX 00 01:16:72FILE "28 The Translations.wav" WAVE INDEX 01 00:00:00 INDEX 02 00:56:30 TRACK 29 AUDIO INDEX 00 01:36:37FILE "29 The Well of Vergelmir.wav" WAVE INDEX 01 00:00:00 TRACK 30 AUDIO INDEX 00 01:15:20FILE "30 The Ultima Machine.wav" WAVE INDEX 01 00:00:00 TRACK 31 AUDIO INDEX 00 01:27:23FILE "31 Stop the Machine!.wav" WAVE INDEX 01 00:00:00 TRACK 32 AUDIO INDEX 00 02:23:33FILE "32 Vampire City!.wav" WAVE INDEX 01 00:00:00 INDEX 02 02:50:60 INDEX 03 03:46:63 TRACK 33 AUDIO INDEX 00 05:14:53FILE "33 The Telegram.wav" WAVE INDEX 01 00:00:00 TRACK 34 AUDIO INDEX 00 00:49:70FILE "34 Evil from the Dawn of Time.wav" WAVE INDEX 01 00:00:00 TRACK 35 AUDIO INDEX 00 01:10:00FILE "35 Shadow Dimensions,The Great Serpent.wav" WAVE INDEX 01 00:00:00 INDEX 02 00:22:43 TRACK 36 AUDIO INDEX 00 01:02:20FILE "36 Pawns in the Game.wav" WAVE INDEX 01 00:00:00 TRACK 37 AUDIO INDEX 00 01:12:17FILE "37 Black Wins, Time Lord!.wav" WAVE INDEX 01 00:00:00 TRACK 38 AUDIO INDEX 00 02:18:25FILE "38 The Final Battle.wav" WAVE INDEX 01 00:00:00 TRACK 39 AUDIO INDEX 00 02:46:30FILE "39 Doctor Who (End Title Theme).wav" WAVE INDEX 01 00:00:00
 
REM GENRE SoundtrackREM DATE 1994REM DISCID 55129D27REM COMMENT "ExactAudioCopy v0.99pb5"PERFORMER "Mark Ayres and Keff McCulloch"TITLE "The Best of Doctor Who Volume 2"FILE "01 Doctor Who (Main Title Theme).wav" WAVE TRACK 01 AUDIO TITLE "Doctor Who (Main Title Theme)" PERFORMER "Keff McCulloch" INDEX 01 00:00:00 TRACK 02 AUDIO TITLE "Invitation to Segonax" PERFORMER "Mark Ayres" INDEX 00 00:54:00FILE "02 Invitation to Segonax.wav" WAVE INDEX 01 00:00:00 INDEX 02 00:40:60 INDEX 03 01:56:35 TRACK 03 AUDIO TITLE "Bellboy & Flowerchild / Fellow Explorers" PERFORMER "Mark Ayres" INDEX 00 03:46:15FILE "03 Bellboy & Flowerchild,Fellow Explorers.wav" WAVE INDEX 01 00:00:00 INDEX 02 01:02:70 TRACK 04 AUDIO TITLE "The Robot Attacks" PERFORMER "Mark Ayres" INDEX 00 02:22:05FILE "04 The Robot Attacks.wav" WAVE INDEX 01 00:00:00 TRACK 05 AUDIO TITLE "Something Sinister" PERFORMER "Mark Ayres" INDEX 00 01:04:60FILE "05 Something Sinister.wav" WAVE INDEX 01 00:00:00 TRACK 06 AUDIO TITLE "The Circus Ring / Eavesdropping" PERFORMER "Mark Ayres" INDEX 00 01:38:12FILE "06 The Circus Ring,Eavesdropping.wav" WAVE INDEX 01 00:00:00 INDEX 02 01:28:65 TRACK 07 AUDIO TITLE "Stone Archway" PERFORMER "Mark Ayres" INDEX 00 02:15:55FILE "07 Stone Archway.wav" WAVE INDEX 01 00:00:00 TRACK 08 AUDIO TITLE "The Well" PERFORMER "Mark Ayres" INDEX 00 01:45:28FILE "08 The Well.wav" WAVE INDEX 01 00:00:00 TRACK 09 AUDIO TITLE "Bellboy's Sacrifice" PERFORMER "Mark Ayres" INDEX 00 01:04:03FILE "09 Bellboy's Sacrifice.wav" WAVE INDEX 01 00:00:00 TRACK 10 AUDIO TITLE "The Werewolf / Request Stop" PERFORMER "Mark Ayres" INDEX 00 02:56:33FILE "10 The Werewolf,'Request Stop'.wav" WAVE INDEX 01 00:00:00 INDEX 02 04:22:05 TRACK 11 AUDIO TITLE "Playing for Time" PERFORMER "Mark Ayres" INDEX 00 05:49:28FILE "11 Playing for Time.wav" WAVE INDEX 01 00:00:00 TRACK 12 AUDIO TITLE "The Madhouse" PERFORMER "Mark Ayres" INDEX 00 04:56:65FILE "12 The Madhouse.wav" WAVE INDEX 01 00:00:00 INDEX 02 01:23:17 INDEX 03 02:27:12 TRACK 13 AUDIO TITLE "Uncharted Territory" PERFORMER "Mark Ayres" INDEX 00 03:26:00FILE "13 Uncharted Territory.wav" WAVE INDEX 01 00:00:00 TRACK 14 AUDIO TITLE "Heart of the Interior / Nimrod Observed" PERFORMER "Mark Ayres" INDEX 00 01:37:43FILE "14 Heart of the Interior,Nimrod Observed.wav" WAVE INDEX 01 00:00:00 INDEX 02 00:51:55 TRACK 15 AUDIO TITLE "Time to Emerge" PERFORMER "Mark Ayres" INDEX 00 01:48:25FILE "15 Time to Emerge.wav" WAVE INDEX 01 00:00:00 TRACK 16 AUDIO TITLE "Ace's Adventures Underground" PERFORMER "Mark Ayres" INDEX 00 01:19:52FILE "16 Ace's Adventures Underground.wav" WAVE INDEX 01 00:00:00 INDEX 02 00:21:22 INDEX 03 00:39:30 TRACK 17 AUDIO TITLE "The Memory Teller" PERFORMER "Mark Ayres" INDEX 00 01:51:25FILE "17 The Memory Teller.wav" WAVE INDEX 01 00:00:00 TRACK 18 AUDIO TITLE "Homo Victorianus Ineptus" PERFORMER "Mark Ayres" INDEX 00 01:34:63FILE "18 Homo Victorianus Ineptus.wav" WAVE INDEX 01 00:00:00 TRACK 19 AUDIO TITLE "Out of the Shadows" PERFORMER "Mark Ayres" INDEX 00 01:18:05FILE "19 Out of the Shadows.wav" WAVE INDEX 01 00:00:00 INDEX 02 02:03:67 TRACK 20 AUDIO TITLE "Tricks of the Light" PERFORMER "Mark Ayres" INDEX 00 02:37:72FILE "20 Tricks of the Light.wav" WAVE INDEX 01 00:00:00 TRACK 21 AUDIO TITLE "Judgement in Stone" PERFORMER "Mark Ayres" INDEX 00 01:31:37FILE "21 Judgement in Stone.wav" WAVE INDEX 01 00:00:00 TRACK 22 AUDIO TITLE "Requiem / Passing Thoughts" PERFORMER "Mark Ayres" INDEX 00 02:14:37FILE "22 Requiem,Passing Thoughts.wav" WAVE INDEX 01 00:00:00 INDEX 02 03:01:35 TRACK 23 AUDIO TITLE "The Boats" PERFORMER "Mark Ayres" INDEX 00 03:42:55FILE "23 The Boats.wav" WAVE INDEX 01 00:00:00 TRACK 24 AUDIO TITLE "Rat-Trap" PERFORMER "Mark Ayres" INDEX 00 00:43:40FILE "24 Rat-Trap.wav" WAVE INDEX 01 00:00:00 TRACK 25 AUDIO TITLE "Sealed Orders" PERFORMER "Mark Ayres" INDEX 00 01:02:12FILE "25 Sealed Orders.wav" WAVE INDEX 01 00:00:00 TRACK 26 AUDIO TITLE "Commander Millington" PERFORMER "Mark Ayres" INDEX 00 01:19:50FILE "26 Commander Millington.wav" WAVE INDEX 01 00:00:00 TRACK 27 AUDIO TITLE "Maiden's Point" PERFORMER "Mark Ayres" INDEX 00 00:46:65FILE "27 Maiden's Point.wav" WAVE INDEX 01 00:00:00 TRACK 28 AUDIO TITLE "The Translations" PERFORMER "Mark Ayres" INDEX 00 01:16:72FILE "28 The Translations.wav" WAVE INDEX 01 00:00:00 INDEX 02 00:56:30 TRACK 29 AUDIO TITLE "The Well of Vergelmir" PERFORMER "Mark Ayres" INDEX 00 01:36:37FILE "29 The Well of Vergelmir.wav" WAVE INDEX 01 00:00:00 TRACK 30 AUDIO TITLE "The Ultima Machine" PERFORMER "Mark Ayres" INDEX 00 01:15:20FILE "30 The Ultima Machine.wav" WAVE INDEX 01 00:00:00 TRACK 31 AUDIO TITLE "Stop the Machine!" PERFORMER "Mark Ayres" INDEX 00 01:27:23FILE "31 Stop the Machine!.wav" WAVE INDEX 01 00:00:00 TRACK 32 AUDIO TITLE "Vampire City!" PERFORMER "Mark Ayres" INDEX 00 02:23:33FILE "32 Vampire City!.wav" WAVE INDEX 01 00:00:00 INDEX 02 02:50:60 INDEX 03 03:46:63 TRACK 33 AUDIO TITLE "The Telegram" PERFORMER "Mark Ayres" INDEX 00 05:14:53FILE "33 The Telegram.wav" WAVE INDEX 01 00:00:00 TRACK 34 AUDIO TITLE "Evil from the Dawn of Time" PERFORMER "Mark Ayres" INDEX 00 00:49:70FILE "34 Evil from the Dawn of Time.wav" WAVE INDEX 01 00:00:00 TRACK 35 AUDIO TITLE "Shadow Dimensions / The Great Serpent" PERFORMER "Mark Ayres" INDEX 00 01:10:00FILE "35 Shadow Dimensions,The Great Serpent.wav" WAVE INDEX 01 00:00:00 INDEX 02 00:22:43 TRACK 36 AUDIO TITLE "Pawns in the Game" PERFORMER "Mark Ayres" INDEX 00 01:02:20FILE "36 Pawns in the Game.wav" WAVE INDEX 01 00:00:00 TRACK 37 AUDIO TITLE "Black Wins, Time Lord!" PERFORMER "Mark Ayres" INDEX 00 01:12:17FILE "37 Black Wins, Time Lord!.wav" WAVE INDEX 01 00:00:00 TRACK 38 AUDIO TITLE "The Final Battle" PERFORMER "Mark Ayres" INDEX 00 02:18:25FILE "38 The Final Battle.wav" WAVE INDEX 01 00:00:00 TRACK 39 AUDIO TITLE "Doctor Who (End Title Theme)" PERFORMER "Mark Ayres" INDEX 00 02:46:30FILE "39 Doctor Who (End Title Theme).wav" WAVE INDEX 01 00:00:00
 
AUDIOCHECKER v2.0 beta (build 457) - by Dester - opdester@freemail.hu~~~~~~~~~~~~~~~~~~~~~~~~~~~~~~~~~~-=== НЕ РЕДАКТИРУЙТЕ ЭТОТ ФАЙЛ! ===-

Путь: ...\1994 - The Best of Doctor Who Volume 2 [Mark Ayres] FLAC

01 -=- 01 Doctor Who (Main Title Theme).flac -=- CDDA (100%)02 -=- 02 Invitation to Segonax.flac -=- CDDA (100%)03 -=- 03 Bellboy & Flowerchild,Fellow Explorers.flac -=- CDDA (100%)04 -=- 04 The Robot Attacks.flac -=- CDDA (100%)05 -=- 05 Something Sinister.flac -=- CDDA (99%)06 -=- 06 The Circus Ring,Eavesdropping.flac -=- CDDA (100%)07 -=- 07 Stone Archway.flac -=- CDDA (100%)08 -=- 08 The Well.flac -=- CDDA (100%)09 -=- 09 Bellboy's Sacrifice.flac -=- CDDA (100%)10 -=- 10 The Werewolf,'Request Stop'.flac -=- CDDA (100%)11 -=- 11 Playing for Time.flac -=- CDDA (99%)12 -=- 12 The Madhouse.flac -=- CDDA (100%)13 -=- 13 Uncharted Territory.flac -=- CDDA (100%)14 -=- 14 Heart of the Interior,Nimrod Observed.flac -=- CDDA (100%)15 -=- 15 Time to Emerge.flac -=- CDDA (99%)16 -=- 16 Ace's Adventures Underground.flac -=- CDDA (100%)17 -=- 17 The Memory Teller.flac -=- CDDA (100%)18 -=- 18 Homo Victorianus Ineptus.flac -=- CDDA (100%)19 -=- 19 Out of the Shadows.flac -=- CDDA (100%)20 -=- 20 Tricks of the Light.flac -=- CDDA (100%)21 -=- 21 Judgement in Stone.flac -=- CDDA (100%)22 -=- 22 Requiem,Passing Thoughts.flac -=- CDDA (100%)23 -=- 23 The Boats.flac -=- CDDA (100%)24 -=- 24 Rat-Trap.flac -=- CDDA (100%)25 -=- 25 Sealed Orders.flac -=- CDDA (100%)26 -=- 26 Commander Millington.flac -=- CDDA (99%)27 -=- 27 Maiden's Point.flac -=- CDDA (99%)28 -=- 28 The Translations.flac -=- CDDA (100%)29 -=- 29 The Well of Vergelmir.flac -=- CDDA (100%)30 -=- 30 The Ultima Machine.flac -=- CDDA (99%)31 -=- 31 Stop the Machine!.flac -=- CDDA (99%)32 -=- 32 Vampire City!.flac -=- CDDA (100%)33 -=- 33 The Telegram.flac -=- CDDA (99%)34 -=- 34 Evil from the Dawn of Time.flac -=- CDDA (99%)35 -=- 35 Shadow Dimensions,The Great Serpent.flac -=- CDDA (100%)36 -=- 36 Pawns in the Game.flac -=- CDDA (99%)37 -=- 37 Black Wins, Time Lord!.flac -=- CDDA (100%)38 -=- 38 The Final Battle.flac -=- CDDA (99%)39 -=- 39 Doctor Who (End Title Theme).flac -=- CDDA (100%)

Сводка 99,72% CDDA

90252308


Трекер:  [ 02-Дек-2011 19:05 ]

  

Скачать .torrent

Размер .torrent файла 37 KB


Размер: 746 MB
Хэш (hash) релиза: df33ca3c66e1e9377a640c60623f7248eab94e9e

Торренты, похожие на Доктор кто: Лучшее The Best of Doctor Who скачать торрент

Форум Название Автор Размер S L Добавлен
Саундтреки к фильмам и мультфильмам (mp3) ·· (Score) Доктор кто: Лучшее / The Best of Doctor Who [Volume 1&2] (by Ron Grainer, Malcolm Clarke, Dudley Simpson, Roger Limb, Peter Howell, Jonathan Gibbs, Mark Ayres and Keff McCulloch) - 1993-1994, MP3, 320 kbps Galfimbul 368767418352 MB 0 0 1322396272

15:17

27-Ноя-11

Еще никто не оставлял запись к записи скачать торрент Доктор кто: Лучшее The Best of Doctor Who . Будь первым!

!Обратная связь