Скачать через торрент музыку О смерти, о любви Dellamorte Dellamore бесплатно без регистрации torrent

Если у вас наблюдаются проблемы со скриншотами, переходом по ссылками, скачиванием торрентов - проблемы в блокировщике рекламы AdBlock. #хорошегоДня!


Статистика раздачи
Размер:  261 MB   |    Зарегистрирован:  6 лет   |    .torrent скачан:  44 раза   |   
Раздают:  1  
   
Загрузка...
 
Автор Сообщение

Galfimbul

avatar Galfimbul


О смерти, о любви / Dellamorte Dellamore

Жанр: Score
Композитор: Manuel De Sica
Год выпуска диска: 1994
Страна-производитель диска: Италия
Издатель (лейбл): GDM Music
Номер по каталогу: 2004

Аудиокодек: FLAC (*.flac)
Тип рипа: tracks+.cue
Битрейт аудио: lossless
Продолжительность: 50:30

Источник: lztr.us; terrorxpress.blogspot.com
Наличие сканов в содержимом раздачи: да

Доп. информация: Оригинальное издание 1994 года музыки к замечательному фильму Микеле Соави (Michele Soavi).
Как сказал Мартин Скорсезе, Dellamorte Dellamore, наверное, один из лучших итальянских фильмов 90-х!
Всем срочно смотреть и слушать. Кино отличное!
01 Dellamorte Dellamore (1:51)
02 Buffalora's Cemetery (1:18)
03 Francesco's Thoughts (1:10)
04 The First ''She'' (1:19)
05 The Making Of The Skull (1:46)
06 Will I See Her Again (2:48)
07 The Ossuary (2:02)
08 Ignis Fatuus (1:24)
09 After The Fly (0:40)
10 Gnaghi (0:38)
11 The Moon On The Island Of The Death (2:03)
12 On Augusto's Grave (2:13)
13 Ressurrecturis (2:40)
14 The Run Of The Death Motorbyke (2:57)
15 Small Living Dead (2:56)
16 Before The Earthquake (2:03)
17 ''She'' Returner (3:11)
18 The Death That Lives (1:27)
19 Shoot The Living (2:34)
20 Stolen Murders (4:07)
21 The Life That Dies (0:56)
22 Lethal Shot (1:47)
23 The Death Is A Whore (1:15)
24 The Rest Of The World (Doesn't Exist) (2:22)
25 Dellamorte Dellamore (3:06)

 
Exact Audio Copy V0.99 prebeta 4 from 23. January 2008

EAC extraction logfile from 15. June 2009, 11:11

Manuel De Sica / DellaMorte DellAmore

Used drive : PIONEER DVD-RW DVR-115D Adapter: 5 ID: 0

Read mode : SecureUtilize accurate stream : YesDefeat audio cache : YesMake use of C2 pointers : No

Read offset correction : 48Overread into Lead-In and Lead-Out : NoFill up missing offset samples with silence : YesDelete leading and trailing silent blocks : NoNull samples used in CRC calculations : YesUsed interface : Installed external ASPI interfaceGap handling : Appended to previous track

Used output format : User Defined EncoderSelected bitrate : 768 kBit/sQuality : HighAdd ID3 tag : NoCommand line compressor : C:\Program Files\Exact Audio Copy\FLAC\FLAC.EXEAdditional command line options : -8 -V -T "ARTIST=%a" -T "TITLE=%t" -T "ALBUM=%g" -T "DATE=%y" -T "TRACKNUMBER=%n" -T "GENRE=%m" -T "COMMENT=%e" %s -o %d

TOC of the extracted CD

Track | Start | Length | Start sector | End sector --------------------------------------------------------- 1 | 0:00.00 | 1:51.23 | 0 | 8347 2 | 1:51.23 | 1:18.00 | 8348 | 14197 3 | 3:09.23 | 1:09.47 | 14198 | 19419 4 | 4:18.70 | 1:18.38 | 19420 | 25307 5 | 5:37.33 | 1:45.45 | 25308 | 33227 6 | 7:23.03 | 2:48.27 | 33228 | 45854 7 | 10:11.30 | 2:01.38 | 45855 | 54967 8 | 12:12.68 | 1:24.12 | 54968 | 61279 9 | 13:37.05 | 0:39.50 | 61280 | 64254 10 | 14:16.55 | 0:38.10 | 64255 | 67114 11 | 14:54.65 | 2:02.65 | 67115 | 76329 12 | 16:57.55 | 2:12.43 | 76330 | 86272 13 | 19:10.23 | 2:40.25 | 86273 | 98297 14 | 21:50.48 | 2:57.20 | 98298 | 111592 15 | 24:47.68 | 2:55.57 | 111593 | 124774 16 | 27:43.50 | 2:03.05 | 124775 | 134004 17 | 29:46.55 | 3:10.38 | 134005 | 148292 18 | 32:57.18 | 1:27.05 | 148293 | 154822 19 | 34:24.23 | 2:34.37 | 154823 | 166409 20 | 36:58.60 | 4:06.73 | 166410 | 184932 21 | 41:05.58 | 0:55.62 | 184933 | 189119 22 | 42:01.45 | 1:46.45 | 189120 | 197114 23 | 43:48.15 | 1:14.45 | 197115 | 202709 24 | 45:02.60 | 2:21.68 | 202710 | 213352 25 | 47:24.53 | 3:05.45 | 213353 | 227272

Track 1

Filename z:\media\DISK2SATA320GB\X\Dellamorte Dellamore\01 - Dellamorte Dellamore.wav

Pre-gap length 0:00:02.00

Peak level 98.6 % Track quality 100.0 % Test CRC 054A470A Copy CRC 054A470A Accurately ripped (confidence 2) [D1DF029E] Copy OK

Track 2

Filename z:\media\DISK2SATA320GB\X\Dellamorte Dellamore\02 - Buffalora's Cemetery.wav

Peak level 77.7 % Track quality 99.8 % Test CRC 3619A3E4 Copy CRC 3619A3E4 Accurately ripped (confidence 2) [0E402706] Copy OK

Track 3

Filename z:\media\DISK2SATA320GB\X\Dellamorte Dellamore\03 - Francesco's Thoughts.wav

Peak level 33.9 % Track quality 100.0 % Test CRC 4F0253D6 Copy CRC 4F0253D6 Accurately ripped (confidence 2) [E7CEE917] Copy OK

Track 4

Filename z:\media\DISK2SATA320GB\X\Dellamorte Dellamore\04 - The First 'She'.wav

Peak level 73.2 % Track quality 100.0 % Test CRC 770A1042 Copy CRC 770A1042 Accurately ripped (confidence 2) [285DE1D4] Copy OK

Track 5

Filename z:\media\DISK2SATA320GB\X\Dellamorte Dellamore\05 - The Making Of The Skull.wav

Peak level 18.3 % Track quality 99.8 % Test CRC A852FFAD Copy CRC A852FFAD Accurately ripped (confidence 2) [72F92C16] Copy OK

Track 6

Filename z:\media\DISK2SATA320GB\X\Dellamorte Dellamore\06 - Will I See Her Again .wav

Peak level 87.5 % Track quality 99.9 % Test CRC 105E9F15 Copy CRC 105E9F15 Accurately ripped (confidence 2) [C593CA26] Copy OK

Track 7

Filename z:\media\DISK2SATA320GB\X\Dellamorte Dellamore\07 - The Ossuary.wav

Peak level 73.0 % Track quality 99.9 % Test CRC 567BD90A Copy CRC 567BD90A Accurately ripped (confidence 2) [1D9045EE] Copy OK

Track 8

Filename z:\media\DISK2SATA320GB\X\Dellamorte Dellamore\08 - Ignis Fatuus.wav

Peak level 42.2 % Track quality 100.0 % Test CRC EE6EB000 Copy CRC EE6EB000 Accurately ripped (confidence 2) [5E1BFE72] Copy OK

Track 9

Filename z:\media\DISK2SATA320GB\X\Dellamorte Dellamore\09 - After The Fly.wav

Peak level 67.1 % Track quality 100.0 % Test CRC 95C89D2F Copy CRC 95C89D2F Accurately ripped (confidence 2) [2C0380F0] Copy OK

Track 10

Filename z:\media\DISK2SATA320GB\X\Dellamorte Dellamore\10 - Gnaghi.wav

Peak level 96.0 % Track quality 100.0 % Test CRC F7AA8757 Copy CRC F7AA8757 Accurately ripped (confidence 2) [C47F8272] Copy OK

Track 11

Filename z:\media\DISK2SATA320GB\X\Dellamorte Dellamore\11 - The Moon On The Island Of The Death.wav

Peak level 87.5 % Track quality 99.9 % Test CRC 7C59A742 Copy CRC 7C59A742 Accurately ripped (confidence 2) [E6A2D448] Copy OK

Track 12

Filename z:\media\DISK2SATA320GB\X\Dellamorte Dellamore\12 - On Augusto's Grave.wav

Peak level 85.4 % Track quality 100.0 % Test CRC 7D5103A3 Copy CRC 7D5103A3 Accurately ripped (confidence 2) [016C7513] Copy OK

Track 13

Filename z:\media\DISK2SATA320GB\X\Dellamorte Dellamore\13 - Ressurrecturis.wav

Peak level 39.9 % Track quality 100.0 % Test CRC 88BC6251 Copy CRC 88BC6251 Accurately ripped (confidence 2) [61B1327A] Copy OK

Track 14

Filename z:\media\DISK2SATA320GB\X\Dellamorte Dellamore\14 - The Run Of The Death Motorbyke.wav

Peak level 94.5 % Track quality 100.0 % Test CRC 30B51FA9 Copy CRC 30B51FA9 Accurately ripped (confidence 2) [323D4F57] Copy OK

Track 15

Filename z:\media\DISK2SATA320GB\X\Dellamorte Dellamore\15 - Small Living Dead.wav

Peak level 88.9 % Track quality 100.0 % Test CRC 65AFE900 Copy CRC 65AFE900 Accurately ripped (confidence 2) [057DFC99] Copy OK

Track 16

Filename z:\media\DISK2SATA320GB\X\Dellamorte Dellamore\16 - Before The Earthquake.wav

Peak level 80.6 % Track quality 100.0 % Test CRC B9C81B97 Copy CRC B9C81B97 Accurately ripped (confidence 2) [87D34F30] Copy OK

Track 17

Filename z:\media\DISK2SATA320GB\X\Dellamorte Dellamore\17 - 'She' Returner.wav

Peak level 94.5 % Track quality 100.0 % Test CRC 0CBEC1B0 Copy CRC 0CBEC1B0 Accurately ripped (confidence 2) [0E36A2CC] Copy OK

Track 18

Filename z:\media\DISK2SATA320GB\X\Dellamorte Dellamore\18 - The Death That Lives.wav

Peak level 66.2 % Track quality 100.0 % Test CRC A7F7A886 Copy CRC A7F7A886 Accurately ripped (confidence 2) [FAFB7E88] Copy OK

Track 19

Filename z:\media\DISK2SATA320GB\X\Dellamorte Dellamore\19 - Shoot The Living.wav

Peak level 91.6 % Track quality 100.0 % Test CRC 3E342AB9 Copy CRC 3E342AB9 Accurately ripped (confidence 2) [D117D204] Copy OK

Track 20

Filename z:\media\DISK2SATA320GB\X\Dellamorte Dellamore\20 - Stolen Murders.wav

Peak level 84.4 % Track quality 100.0 % Test CRC D8011380 Copy CRC D8011380 Accurately ripped (confidence 2) [80C7B186] Copy OK

Track 21

Filename z:\media\DISK2SATA320GB\X\Dellamorte Dellamore\21 - The Life That Dies.wav

Peak level 20.3 % Track quality 100.0 % Test CRC C7059780 Copy CRC C7059780 Accurately ripped (confidence 2) [8FB402BE] Copy OK

Track 22

Filename z:\media\DISK2SATA320GB\X\Dellamorte Dellamore\22 - Letal Shot.wav

Peak level 91.6 % Track quality 99.9 % Test CRC 7C347EF8 Copy CRC 7C347EF8 Accurately ripped (confidence 2) [18E1347A] Copy OK

Track 23

Filename z:\media\DISK2SATA320GB\X\Dellamorte Dellamore\23 - The Death Is A Whore.wav

Peak level 91.6 % Track quality 100.0 % Test CRC 9ECF17F2 Copy CRC 9ECF17F2 Accurately ripped (confidence 2) [7A396881] Copy OK

Track 24

Filename z:\media\DISK2SATA320GB\X\Dellamorte Dellamore\24 - The Rest Of The World (Doesn't Exist).wav

Peak level 91.6 % Track quality 100.0 % Test CRC 79D15C5A Copy CRC 79D15C5A Accurately ripped (confidence 2) [22297660] Copy OK

Track 25

Filename z:\media\DISK2SATA320GB\X\Dellamorte Dellamore\25 - Dellamorte Dellamore.wav

Peak level 91.6 % Track quality 100.0 % Test CRC A8ECB8FC Copy CRC A8ECB8FC Accurately ripped (confidence 2) [08CF0607] Copy OK

All tracks accurately ripped

No errors occurred

End of status report
 
REM GENRE SoundtrackREM DATE 1994REM DISCID 610BD619REM COMMENT "ExactAudioCopy v0.99pb4"PERFORMER "Manuel De Sica"TITLE "Dellamorte Dellamore"FILE "01 Dellamorte Dellamore.wav" WAVE TRACK 01 AUDIO TITLE "Dellamorte Dellamore" PERFORMER "Manuel De Sica" INDEX 01 00:00:00FILE "02 Buffalora's Cemetery.wav" WAVE TRACK 02 AUDIO TITLE "Buffalora's Cemetery" PERFORMER "Manuel De Sica" INDEX 01 00:00:00FILE "03 Francesco's Thoughts.wav" WAVE TRACK 03 AUDIO TITLE "Francesco's Thoughts" PERFORMER "Manuel De Sica" INDEX 01 00:00:00FILE "04 The First ''She''.wav" WAVE TRACK 04 AUDIO TITLE "The First ''She''" PERFORMER "Manuel De Sica" INDEX 01 00:00:00FILE "05 The Making Of The Skull.wav" WAVE TRACK 05 AUDIO TITLE "The Making Of The Skull" PERFORMER "Manuel De Sica" INDEX 01 00:00:00FILE "06 Will I See Her Again.wav" WAVE TRACK 06 AUDIO TITLE "Will I See Her Again" PERFORMER "Manuel De Sica" INDEX 01 00:00:00FILE "07 The Ossuary.wav" WAVE TRACK 07 AUDIO TITLE "The Ossuary" PERFORMER "Manuel De Sica" INDEX 01 00:00:00FILE "08 Ignis Fatuus.wav" WAVE TRACK 08 AUDIO TITLE "Ignis Fatuus" PERFORMER "Manuel De Sica" INDEX 01 00:00:00FILE "09 After The Fly.wav" WAVE TRACK 09 AUDIO TITLE "After The Fly" PERFORMER "Manuel De Sica" INDEX 01 00:00:00FILE "10 Gnaghi.wav" WAVE TRACK 10 AUDIO TITLE "Gnaghi" PERFORMER "Manuel De Sica" INDEX 01 00:00:00FILE "11 The Moon On The Island Of The Death.wav" WAVE TRACK 11 AUDIO TITLE "The Moon On The Island Of The Death" PERFORMER "Manuel De Sica" INDEX 01 00:00:00FILE "12 On Augusto's Grave.wav" WAVE TRACK 12 AUDIO TITLE "On Augusto's Grave" PERFORMER "Manuel De Sica" INDEX 01 00:00:00FILE "13 Ressurrecturis.wav" WAVE TRACK 13 AUDIO TITLE "Ressurrecturis" PERFORMER "Manuel De Sica" INDEX 01 00:00:00FILE "14 The Run Of The Death Motorbyke.wav" WAVE TRACK 14 AUDIO TITLE "The Run Of The Death Motorbyke" PERFORMER "Manuel De Sica" INDEX 01 00:00:00FILE "15 Small Living Dead.wav" WAVE TRACK 15 AUDIO TITLE "Small Living Dead" PERFORMER "Manuel De Sica" INDEX 01 00:00:00FILE "16 Before The Earthquake.wav" WAVE TRACK 16 AUDIO TITLE "Before The Earthquake" PERFORMER "Manuel De Sica" INDEX 01 00:00:00FILE "17 ''She'' Returner.wav" WAVE TRACK 17 AUDIO TITLE "''She'' Returner" PERFORMER "Manuel De Sica" INDEX 01 00:00:00FILE "18 The Death That Lives.wav" WAVE TRACK 18 AUDIO TITLE "The Death That Lives" PERFORMER "Manuel De Sica" INDEX 01 00:00:00FILE "19 Shoot The Living.wav" WAVE TRACK 19 AUDIO TITLE "Shoot The Living" PERFORMER "Manuel De Sica" INDEX 01 00:00:00FILE "20 Stolen Murders.wav" WAVE TRACK 20 AUDIO TITLE "Stolen Murders" PERFORMER "Manuel De Sica" INDEX 01 00:00:00FILE "21 The Life That Dies.wav" WAVE TRACK 21 AUDIO TITLE "The Life That Dies" PERFORMER "Manuel De Sica" INDEX 01 00:00:00FILE "22 Lethal Shot.wav" WAVE TRACK 22 AUDIO TITLE "Lethal Shot" PERFORMER "Manuel De Sica" INDEX 01 00:00:00FILE "23 The Death Is A Whore.wav" WAVE TRACK 23 AUDIO TITLE "The Death Is A Whore" PERFORMER "Manuel De Sica" INDEX 01 00:00:00FILE "24 The Rest Of The World (Doesn't Exist).wav" WAVE TRACK 24 AUDIO TITLE "The Rest Of The World (Doesn't Exist)" PERFORMER "Manuel De Sica" INDEX 01 00:00:00FILE "25 Dellamorte Dellamore.wav" WAVE TRACK 25 AUDIO TITLE "Dellamorte Dellamore" PERFORMER "Manuel De Sica" INDEX 01 00:00:00


Трекер:  [ 02-Дек-2011 19:07 ]

  

Скачать .torrent

Размер .torrent файла 12 KB


Размер: 261 MB
Хэш (hash) релиза: c6b0ead80090a9a862aa8699c4d7cd2a210f380c

Еще никто не оставлял запись к записи скачать торрент О смерти, о любви Dellamorte Dellamore . Будь первым!

!Обратная связь