Скачать через торрент музыку Специалист The Specialist - 1994, FLAC бесплатно без регистрации torrent

Если у вас наблюдаются проблемы со скриншотами, переходом по ссылками, скачиванием торрентов - проблемы в блокировщике рекламы AdBlock. #хорошегоДня!


Статистика раздачи
Размер:  502 MB   |    Зарегистрирован:  5 лет 9 месяцев   |    .torrent скачан:  66 раз   |   
Раздают:  1  
   
Загрузка...
 
Автор Сообщение

Galfimbul

avatar Galfimbul


Специалист | The Specialist

Жанр: Soundtrack
Год выпуска диска: 1994
Страна-производитель диска: Austria
Издатель (лейбл): Epic Records
Номер по каталогу: EPC 477666 2
Аудиокодек: FLAC (*.flac)
Тип рипа: tracks+.cue
Битрейт аудио: lossless
Продолжительность: 01:00:42
Источник: собственный рип
Наличие сканов в содержимом раздачи: да

Треклист:
1. Turn the Beat Around (03:52) performed by Gloria Estefan
2. Jambala (03:21) performed by Miami Sound Machine
3. Real (03:38) performed by Donna Allen
4. All Because of You (02:54) performed by Miami Sound Machine
5. Shower me with Love (04:29) performed by Lagaylia
6. El Baile de la Vela (04:04) performed by Cheito
7. Slip Away (05:12) performed by Lagaylia
8. El Duro Soy Yo (04:34) performed by Tony Tatis y su Merengue Sound
9. Mental Picture (04:19) performed by Jon Secada
10. Que Manera de Quererte (04:29) performed by Albita
11. Love is the Thing (03:38) performed by Donna Allen
12. El Amor (04:52) performed by Azucar Moreno
13. Did You Call Me (05:24) performed by John Barry /The Royal Philharmonic Orchestra/
14. The Specialist (05:40) performed by John Barry /The Royal Philharmonic Orchestra/
 
Exact Audio Copy V1.0 beta 3 from 29. August 2011

EAC extraction logfile from 23. November 2011, 17:42

Various / The Specialist

Used drive : Optiarc DVD RW AD-7283S Adapter: 1 ID: 1

Read mode : SecureUtilize accurate stream : YesDefeat audio cache : YesMake use of C2 pointers : No

Read offset correction : 48Overread into Lead-In and Lead-Out : YesFill up missing offset samples with silence : YesDelete leading and trailing silent blocks : NoNull samples used in CRC calculations : YesUsed interface : Installed external ASPI interfaceGap handling : Appended to previous track

Used output format : User Defined EncoderSelected bitrate : 1024 kBit/sQuality : HighAdd ID3 tag : NoCommand line compressor : C:\Program Files\Exact Audio Copy\Flac\flac.exeAdditional command line options : -V -8 -T "Genre=%genre%" -T "Artist=%artist%" -T "Title=%title%" -T "Album=%albumtitle%" -T "Date=%year%" -T "Tracknumber=%tracknr%" -T "Comment=%comment%" %source%

TOC of the extracted CD

Track | Start | Length | Start sector | End sector --------------------------------------------------------- 1 | 0:00.00 | 3:53.62 | 0 | 17536 2 | 3:53.62 | 3:22.58 | 17537 | 32744 3 | 7:16.45 | 3:40.05 | 32745 | 49249 4 | 10:56.50 | 2:54.62 | 49250 | 62361 5 | 13:51.37 | 4:29.10 | 62362 | 82546 6 | 18:20.47 | 4:06.10 | 82547 | 101006 7 | 22:26.57 | 5:12.58 | 101007 | 124464 8 | 27:39.40 | 4:35.22 | 124465 | 145111 9 | 32:14.62 | 4:19.50 | 145112 | 164586 10 | 36:34.37 | 4:30.65 | 164587 | 184901 11 | 41:05.27 | 3:39.43 | 184902 | 201369 12 | 44:44.70 | 4:51.70 | 201370 | 223264 13 | 49:36.65 | 5:24.45 | 223265 | 247609 14 | 55:01.35 | 5:40.12 | 247610 | 273121

Track 1

Filename F:\torrent\The Specialist_OST\score\01 Turn The Beat Around.wav

Pre-gap length 0:00:02.00

Peak level 97.7 % Extraction speed 4.4 X Track quality 100.0 % Test CRC B89F9510 Copy CRC B89F9510 Cannot be verified as accurate (confidence 3) [8FF1E10A], AccurateRip returned [7DB7EEBF] (AR v2) Copy OK

Track 2

Filename F:\torrent\The Specialist_OST\score\02 Jambala.wav

Pre-gap length 0:00:01.25

Peak level 98.3 % Extraction speed 4.8 X Track quality 100.0 % Test CRC D8372914 Copy CRC D8372914 Cannot be verified as accurate (confidence 3) [D07FB2A2], AccurateRip returned [8965E64A] (AR v2) Copy OK

Track 3

Filename F:\torrent\The Specialist_OST\score\03 Real.wav

Pre-gap length 0:00:01.23

Peak level 97.7 % Extraction speed 3.6 X Track quality 99.9 % Test CRC 8E1D9DC5 Copy CRC 8E1D9DC5 Cannot be verified as accurate (confidence 3) [4F9A7617], AccurateRip returned [BF5AEA02] (AR v2) Copy OK

Track 4

Filename F:\torrent\The Specialist_OST\score\04 All Because Of You.wav

Pre-gap length 0:00:01.52

Peak level 97.7 % Extraction speed 5.3 X Track quality 100.0 % Test CRC 70D65DF4 Copy CRC 70D65DF4 Cannot be verified as accurate (confidence 3) [950EABB3], AccurateRip returned [C7D99756] (AR v2) Copy OK

Track 5

Filename F:\torrent\The Specialist_OST\score\05 Shower Me With Love.wav

Pre-gap length 0:00:01.02

Peak level 97.7 % Extraction speed 6.0 X Track quality 100.0 % Test CRC 36FD99CC Copy CRC 36FD99CC Cannot be verified as accurate (confidence 3) [C36852B7], AccurateRip returned [32A9B417] (AR v2) Copy OK

Track 6

Filename F:\torrent\The Specialist_OST\score\06 El Baile De La Vela.wav

Peak level 98.2 % Extraction speed 6.3 X Track quality 100.0 % Test CRC 2C426BA1 Copy CRC 2C426BA1 Cannot be verified as accurate (confidence 3) [44BD2DB4], AccurateRip returned [2F88EB71] (AR v2) Copy OK

Track 7

Filename F:\torrent\The Specialist_OST\score\07 Slip Away.wav

Pre-gap length 0:00:01.42

Peak level 97.7 % Extraction speed 6.8 X Track quality 100.0 % Test CRC 63361997 Copy CRC 63361997 Cannot be verified as accurate (confidence 3) [4E1A281F], AccurateRip returned [75D8D4A5] (AR v2) Copy OK

Track 8

Filename F:\torrent\The Specialist_OST\score\08 El Duro Soy Yo.wav

Pre-gap length 0:00:00.50

Peak level 97.7 % Extraction speed 7.1 X Track quality 100.0 % Test CRC C685323D Copy CRC C685323D Cannot be verified as accurate (confidence 3) [30066341], AccurateRip returned [BB98BA6D] (AR v2) Copy OK

Track 9

Filename F:\torrent\The Specialist_OST\score\09 Mental Picture.wav

Pre-gap length 0:00:00.62

Peak level 98.3 % Extraction speed 7.3 X Track quality 100.0 % Test CRC CE94B3A3 Copy CRC CE94B3A3 Cannot be verified as accurate (confidence 3) [1395D4BB], AccurateRip returned [6C6389A8] (AR v2) Copy OK

Track 10

Filename F:\torrent\The Specialist_OST\score\10 Que Manera De Quererte.wav

Pre-gap length 0:00:00.15

Peak level 100.0 % Extraction speed 7.7 X Track quality 100.0 % Test CRC C2C42CA7 Copy CRC C2C42CA7 Cannot be verified as accurate (confidence 3) [9904346E], AccurateRip returned [17747741] (AR v2) Copy OK

Track 11

Filename F:\torrent\The Specialist_OST\score\11 Love Is The Thing.wav

Pre-gap length 0:00:01.05

Peak level 97.7 % Extraction speed 7.7 X Track quality 100.0 % Test CRC 5C599542 Copy CRC 5C599542 Cannot be verified as accurate (confidence 3) [442423E1], AccurateRip returned [CB819654] (AR v2) Copy OK

Track 12

Filename F:\torrent\The Specialist_OST\score\12 El Amor.wav

Pre-gap length 0:00:01.30

Peak level 97.7 % Extraction speed 8.3 X Track quality 100.0 % Test CRC EAE71E91 Copy CRC EAE71E91 Cannot be verified as accurate (confidence 3) [2F1C85BB], AccurateRip returned [19EE1555] (AR v2) Copy OK

Track 13

Filename F:\torrent\The Specialist_OST\score\13 Did You Call Me.wav

Peak level 97.6 % Extraction speed 8.7 X Track quality 100.0 % Test CRC 35747CDC Copy CRC 35747CDC Cannot be verified as accurate (confidence 3) [F2D9693C], AccurateRip returned [D4D35A5D] (AR v2) Copy OK

Track 14

Filename F:\torrent\The Specialist_OST\score\14 The Specialist.wav

Pre-gap length 0:00:00.13

Peak level 97.6 % Extraction speed 9.7 X Track quality 100.0 % Test CRC 393FC46B Copy CRC 393FC46B Cannot be verified as accurate (confidence 3) [C5BA0B73], AccurateRip returned [4D953882] (AR v2) Copy OK

No tracks could be verified as accurateYou may have a different pressing from the one(s) in the database

No errors occurred

End of status report

==== Log checksum B837B63347A2C1C7F82AA69B4755B22EED8B56A7A895F66715E3BEEBEFB90D4C ====
 
REM GENRE SoundtrackREM DATE 1994REM DISCID CF0E390EREM COMMENT "ExactAudioCopy v1.0b3"CATALOG 6>5701140;<=;PERFORMER "Various"TITLE "The Specialist"FILE "01 Turn The Beat Around.wav" WAVE TRACK 01 AUDIO TITLE "Turn The Beat Around" PERFORMER "Gloria Estefan" INDEX 01 00:00:00 TRACK 02 AUDIO TITLE "Jambala" PERFORMER "Miami Sound Machine" INDEX 00 03:52:37FILE "02 Jambala.wav" WAVE INDEX 01 00:00:00 TRACK 03 AUDIO TITLE "Real" PERFORMER "Donna Allen" INDEX 00 03:21:35FILE "03 Real.wav" WAVE INDEX 01 00:00:00 TRACK 04 AUDIO TITLE "All Because Of You" PERFORMER "Miami Sound Machine" INDEX 00 03:38:28FILE "04 All Because Of You.wav" WAVE INDEX 01 00:00:00 TRACK 05 AUDIO TITLE "Shower Me With Love" PERFORMER "Lagaylia" INDEX 00 02:53:60FILE "05 Shower Me With Love.wav" WAVE INDEX 01 00:00:00FILE "06 El Baile De La Vela.wav" WAVE TRACK 06 AUDIO TITLE "El Baile De La Vela" PERFORMER "Cheito" INDEX 01 00:00:00 TRACK 07 AUDIO TITLE "Slip Away" PERFORMER "Lagaylia" INDEX 00 04:04:43FILE "07 Slip Away.wav" WAVE INDEX 01 00:00:00 TRACK 08 AUDIO TITLE "El Duro Soy Yo" PERFORMER "Tony Tatis Y Su Merengue Sound" INDEX 00 05:12:08FILE "08 El Duro Soy Yo.wav" WAVE INDEX 01 00:00:00 TRACK 09 AUDIO TITLE "Mental Picture" PERFORMER "Jon Secada" INDEX 00 04:34:35FILE "09 Mental Picture.wav" WAVE INDEX 01 00:00:00 TRACK 10 AUDIO TITLE "Que Manera De Quererte" PERFORMER "Albita" INDEX 00 04:19:35FILE "10 Que Manera De Quererte.wav" WAVE INDEX 01 00:00:00 TRACK 11 AUDIO TITLE "Love Is The Thing" PERFORMER "Donna Allen" INDEX 00 04:29:60FILE "11 Love Is The Thing.wav" WAVE INDEX 01 00:00:00 TRACK 12 AUDIO TITLE "El Amor" PERFORMER "Azucar Moreno" INDEX 00 03:38:13FILE "12 El Amor.wav" WAVE INDEX 01 00:00:00FILE "13 Did You Call Me.wav" WAVE TRACK 13 AUDIO TITLE "Did You Call Me" PERFORMER "John Barry perf. The Royal Philharmonic Orchestra" INDEX 01 00:00:00 TRACK 14 AUDIO TITLE "The Specialist" PERFORMER "John Barry perf. The Royal Philharmonic Orchestra" INDEX 00 05:24:32FILE "14 The Specialist.wav" WAVE INDEX 01 00:00:00


Трекер:  [ 02-Дек-2011 19:07 ]

  

Скачать .torrent

Размер .torrent файла 21 KB


Размер: 502 MB
Хэш (hash) релиза: 652a3bc51cc3155c00d51ca2f3d46129c9c175b0

Еще никто не оставлял запись к записи скачать торрент Специалист The Specialist - 1994, FLAC . Будь первым!

!Обратная связь