Скачать через торрент музыку Царь горы King Of The Hill - 1999, FLAC бесплатно без регистрации torrent

Если у вас наблюдаются проблемы со скриншотами, переходом по ссылками, скачиванием торрентов - проблемы в блокировщике рекламы AdBlock. #хорошегоДня!


Статистика раздачи
Размер:  415 MB   |    Зарегистрирован:  5 лет 9 месяцев   |    .torrent скачан:  36 раз   |   
Раздают:  1  
   
Загрузка...
 
Автор Сообщение

Galfimbul

avatar Galfimbul


Царь горы / King Of The Hill

Жанр: Soundtrack
Год выпуска диска: 1999
Годы выпуска сериала: 1997–2010
Страна-производитель диска: USA
Издатель (лейбл): Elektra
Номер по каталогу: 62441-2
Аудиокодек: FLAC (*.flac)
Тип рипа: tracks+.cue
Битрейт аудио: lossless
Продолжительность: 1:02:19
Источник: what.cd
Наличие сканов в содержимом раздачи: нет

Треклист:
01. Travis Tritt With George Thorogood - Move It On Over [4:59]
02. Barenaked Ladies - Get In Line [3:41]
03. The Mavericks - Down On The Corner [3:33]
04. Sheryl Crow - Straight To The Moon [4:40]
05. Brooks And Dunn - Against The Wind [4:59]
06. Faith Hill - Piece Of My Heart [3:43]
07. Trace Adkins - I Know A Little [3:14]
08. The Hill Family Singers - Mow Against The Grain [4:12]
09. Tonic - East Bound And Down [2:35]
10. Deana Carter - Free Fallin' [4:48]
11. Willie Nelson And Mark McGrath - Angel Flying Too Close To The Ground [5:13]
12. Hank Hill - Teddy Bear [6:24]
13. Old 97's - El Paso [5:07]
14. Luanne Platter - One Tin Soldier [4:11]
15. The Refreshments - King Of The Hill Theme [0:58]
 
X Lossless Decoder version 20100412 (117.3)

XLD extraction logfile from 2010-04-12 23:02:11 -0700

Various Artists / King of the Hill

Used drive : HL-DT-ST DVDRW GA11N (revision JA18)

Use cdparanoia mode : YES (CDParanoia III 10.2 engine)Disable audio cache : OK for the drive with cache less than 2750KBMake use of C2 pointers : NORead offset correction : 667Max retry count : 100

TOC of the extracted CD Track | Start | Length | Start sector | End sector --------------------------------------------------------- 1 | 00:00:00 | 04:59:07 | 0 | 22431 2 | 04:59:07 | 03:40:73 | 22432 | 39004 3 | 08:40:05 | 03:32:57 | 39005 | 54961 4 | 12:12:62 | 04:39:63 | 54962 | 75949 5 | 16:52:50 | 04:58:45 | 75950 | 98344 6 | 21:51:20 | 03:42:45 | 98345 | 115039 7 | 25:33:65 | 03:14:20 | 115040 | 129609 8 | 28:48:10 | 04:12:32 | 129610 | 148541 9 | 33:00:42 | 02:35:23 | 148542 | 160189 10 | 35:35:65 | 04:48:30 | 160190 | 181819 11 | 40:24:20 | 05:13:37 | 181820 | 205331 12 | 45:37:57 | 06:24:35 | 205332 | 234166 13 | 52:02:17 | 05:07:28 | 234167 | 257219 14 | 57:09:45 | 04:11:05 | 257220 | 276049 15 | 61:20:50 | 00:58:25 | 276050 | 280424 16 | 64:51:00 | 04:47:24 | 291825 | 313373

Track 01 Filename : /Users/Home/Desktop/Various Artists - 1999 - King of the Hill FLAC/01 - Move It On Over.flac

Pre-gap length : 00:02:00

CRC32 hash (test run) : 0BADDD01 CRC32 hash : 0BADDD01 CRC32 hash (skip zero) : 26A8E543 AccurateRip signature : F87A113F ->Accurately ripped! (confidence 6) Statistics Read error : 0 Skipped (treated as error) : 0 Edge jitter error (maybe fixed) : 0 Atom jitter error (maybe fixed) : 0 Drift error (maybe fixed) : 0 Dropped bytes error (maybe fixed) : 0 Duplicated bytes error (maybe fixed) : 0 Inconsistency in error sectors : 0

Track 02 Filename : /Users/Home/Desktop/Various Artists - 1999 - King of the Hill FLAC/02 - Get In Line.flac

Pre-gap length : 00:00:02

CRC32 hash (test run) : 8794C3C3 CRC32 hash : 8794C3C3 CRC32 hash (skip zero) : 3008F6ED AccurateRip signature : 3432D096 ->Accurately ripped! (confidence 6) Statistics Read error : 0 Skipped (treated as error) : 0 Edge jitter error (maybe fixed) : 0 Atom jitter error (maybe fixed) : 0 Drift error (maybe fixed) : 0 Dropped bytes error (maybe fixed) : 0 Duplicated bytes error (maybe fixed) : 0 Inconsistency in error sectors : 0

Track 03 Filename : /Users/Home/Desktop/Various Artists - 1999 - King of the Hill FLAC/03 - Down On The Corner.flac

Pre-gap length : 00:00:05

CRC32 hash (test run) : 23C52340 CRC32 hash : 23C52340 CRC32 hash (skip zero) : 8AEF0F01 AccurateRip signature : 7C5327C5 ->Accurately ripped! (confidence 6) Statistics Read error : 0 Skipped (treated as error) : 0 Edge jitter error (maybe fixed) : 0 Atom jitter error (maybe fixed) : 0 Drift error (maybe fixed) : 0 Dropped bytes error (maybe fixed) : 0 Duplicated bytes error (maybe fixed) : 0 Inconsistency in error sectors : 0

Track 04 Filename : /Users/Home/Desktop/Various Artists - 1999 - King of the Hill FLAC/04 - Straight To The Moon.flac

Pre-gap length : 00:00:05

CRC32 hash (test run) : EBF38AB0 CRC32 hash : EBF38AB0 CRC32 hash (skip zero) : DCC0638D AccurateRip signature : 0CC6C746 ->Accurately ripped! (confidence 6) Statistics Read error : 0 Skipped (treated as error) : 0 Edge jitter error (maybe fixed) : 0 Atom jitter error (maybe fixed) : 0 Drift error (maybe fixed) : 0 Dropped bytes error (maybe fixed) : 0 Duplicated bytes error (maybe fixed) : 0 Inconsistency in error sectors : 0

Track 05 Filename : /Users/Home/Desktop/Various Artists - 1999 - King of the Hill FLAC/05 - Against The Wind.flac

Pre-gap length : 00:00:03

CRC32 hash (test run) : F1A5A8AA CRC32 hash : F1A5A8AA CRC32 hash (skip zero) : 56D9CD5A AccurateRip signature : 9ECB4041 ->Accurately ripped! (confidence 6) Statistics Read error : 0 Skipped (treated as error) : 0 Edge jitter error (maybe fixed) : 0 Atom jitter error (maybe fixed) : 0 Drift error (maybe fixed) : 0 Dropped bytes error (maybe fixed) : 0 Duplicated bytes error (maybe fixed) : 0 Inconsistency in error sectors : 0

Track 06 Filename : /Users/Home/Desktop/Various Artists - 1999 - King of the Hill FLAC/06 - Piece Of My Heart.flac

Pre-gap length : 00:00:03

CRC32 hash (test run) : 29D0C3F4 CRC32 hash : 29D0C3F4 CRC32 hash (skip zero) : E7B64201 AccurateRip signature : E1CA6FBF ->Accurately ripped! (confidence 6) Statistics Read error : 0 Skipped (treated as error) : 0 Edge jitter error (maybe fixed) : 0 Atom jitter error (maybe fixed) : 0 Drift error (maybe fixed) : 0 Dropped bytes error (maybe fixed) : 0 Duplicated bytes error (maybe fixed) : 0 Inconsistency in error sectors : 0

Track 07 Filename : /Users/Home/Desktop/Various Artists - 1999 - King of the Hill FLAC/07 - I Know A Little.flac

Pre-gap length : 00:00:03

CRC32 hash (test run) : 5102D405 CRC32 hash : 5102D405 CRC32 hash (skip zero) : 5BB4ED80 AccurateRip signature : 437FCB56 ->Accurately ripped! (confidence 6) Statistics Read error : 0 Skipped (treated as error) : 0 Edge jitter error (maybe fixed) : 0 Atom jitter error (maybe fixed) : 0 Drift error (maybe fixed) : 0 Dropped bytes error (maybe fixed) : 0 Duplicated bytes error (maybe fixed) : 0 Inconsistency in error sectors : 0

Track 08 Filename : /Users/Home/Desktop/Various Artists - 1999 - King of the Hill FLAC/08 - Mow Against The Grain.flac

Pre-gap length : 00:00:05

CRC32 hash (test run) : 17D4A802 CRC32 hash : 17D4A802 CRC32 hash (skip zero) : 1FD59A6B AccurateRip signature : 2F548F51 ->Accurately ripped! (confidence 6) Statistics Read error : 0 Skipped (treated as error) : 0 Edge jitter error (maybe fixed) : 0 Atom jitter error (maybe fixed) : 0 Drift error (maybe fixed) : 0 Dropped bytes error (maybe fixed) : 0 Duplicated bytes error (maybe fixed) : 0 Inconsistency in error sectors : 0

Track 09 Filename : /Users/Home/Desktop/Various Artists - 1999 - King of the Hill FLAC/09 - East Bound And Down.flac

Pre-gap length : 00:00:02

CRC32 hash (test run) : 40E852AD CRC32 hash : 40E852AD CRC32 hash (skip zero) : F6A14FD6 AccurateRip signature : 212BBE7B ->Accurately ripped! (confidence 6) Statistics Read error : 0 Skipped (treated as error) : 0 Edge jitter error (maybe fixed) : 0 Atom jitter error (maybe fixed) : 0 Drift error (maybe fixed) : 0 Dropped bytes error (maybe fixed) : 0 Duplicated bytes error (maybe fixed) : 0 Inconsistency in error sectors : 0

Track 10 Filename : /Users/Home/Desktop/Various Artists - 1999 - King of the Hill FLAC/10 - Free Fallin'.flac

Pre-gap length : 00:00:05

CRC32 hash (test run) : 293DFD17 CRC32 hash : 293DFD17 CRC32 hash (skip zero) : 06AFC74D AccurateRip signature : B04119E5 ->Accurately ripped! (confidence 5) Statistics Read error : 0 Skipped (treated as error) : 0 Edge jitter error (maybe fixed) : 0 Atom jitter error (maybe fixed) : 0 Drift error (maybe fixed) : 0 Dropped bytes error (maybe fixed) : 0 Duplicated bytes error (maybe fixed) : 0 Inconsistency in error sectors : 0

Track 11 Filename : /Users/Home/Desktop/Various Artists - 1999 - King of the Hill FLAC/11 - Angel Flying Too Close To The Ground.flac

Pre-gap length : 00:00:05

CRC32 hash (test run) : EC3F70BC CRC32 hash : EC3F70BC CRC32 hash (skip zero) : BC2C6E4C AccurateRip signature : 8DF92567 ->Accurately ripped! (confidence 5) Statistics Read error : 0 Skipped (treated as error) : 0 Edge jitter error (maybe fixed) : 0 Atom jitter error (maybe fixed) : 0 Drift error (maybe fixed) : 0 Dropped bytes error (maybe fixed) : 0 Duplicated bytes error (maybe fixed) : 0 Inconsistency in error sectors : 0

Track 12 Filename : /Users/Home/Desktop/Various Artists - 1999 - King of the Hill FLAC/12 - Teddy Bear.flac

Pre-gap length : 00:00:02

CRC32 hash (test run) : BC0D8752 CRC32 hash : BC0D8752 CRC32 hash (skip zero) : AFCFE4FC AccurateRip signature : 46430A0A ->Accurately ripped! (confidence 5) Statistics Read error : 0 Skipped (treated as error) : 0 Edge jitter error (maybe fixed) : 0 Atom jitter error (maybe fixed) : 0 Drift error (maybe fixed) : 0 Dropped bytes error (maybe fixed) : 0 Duplicated bytes error (maybe fixed) : 0 Inconsistency in error sectors : 0

Track 13 Filename : /Users/Home/Desktop/Various Artists - 1999 - King of the Hill FLAC/13 - El Paso.flac

Pre-gap length : 00:00:05

CRC32 hash (test run) : 87A3784A CRC32 hash : 87A3784A CRC32 hash (skip zero) : 22F80321 AccurateRip signature : 19B8DE93 ->Accurately ripped! (confidence 5) Statistics Read error : 0 Skipped (treated as error) : 0 Edge jitter error (maybe fixed) : 0 Atom jitter error (maybe fixed) : 0 Drift error (maybe fixed) : 0 Dropped bytes error (maybe fixed) : 0 Duplicated bytes error (maybe fixed) : 0 Inconsistency in error sectors : 0

Track 14 Filename : /Users/Home/Desktop/Various Artists - 1999 - King of the Hill FLAC/14 - One Tin Soldier.flac

Pre-gap length : 00:00:03

CRC32 hash (test run) : 23E313BD CRC32 hash : 23E313BD CRC32 hash (skip zero) : C5FAA5EB AccurateRip signature : A3B71E94 ->Accurately ripped! (confidence 5) Statistics Read error : 0 Skipped (treated as error) : 0 Edge jitter error (maybe fixed) : 0 Atom jitter error (maybe fixed) : 0 Drift error (maybe fixed) : 0 Dropped bytes error (maybe fixed) : 0 Duplicated bytes error (maybe fixed) : 0 Inconsistency in error sectors : 0

Track 15 Filename : /Users/Home/Desktop/Various Artists - 1999 - King of the Hill FLAC/15 - King Of The Hill Theme.flac

Pre-gap length : 00:00:03

CRC32 hash (test run) : CED2B002 CRC32 hash : CED2B002 CRC32 hash (skip zero) : CDC3356A AccurateRip signature : FB43E758 ->Accurately ripped! (confidence 6) Statistics Read error : 0 Skipped (treated as error) : 0 Edge jitter error (maybe fixed) : 0 Atom jitter error (maybe fixed) : 0 Drift error (maybe fixed) : 0 Dropped bytes error (maybe fixed) : 0 Duplicated bytes error (maybe fixed) : 0 Inconsistency in error sectors : 0

No errors occurred

End of status report
 
TITLE "King of the Hill"CATALOG 0075596244121REM GENRE "Soundtrack"REM DATE 1999FILE "01 - Move It On Over.wav" WAVE TRACK 01 AUDIO TITLE "Move It On Over" PERFORMER "Travis Tritt with George Thorogood" ISRC 000000000000 INDEX 01 00:00:00 TRACK 02 AUDIO TITLE "Get In Line" PERFORMER "Barenaked Ladies" ISRC USRE19901087 INDEX 00 04:59:05FILE "02 - Get In Line.wav" WAVE INDEX 01 00:00:00 TRACK 03 AUDIO TITLE "Down On The Corner" PERFORMER "The Mavericks" ISRC 000000000000 INDEX 00 03:40:68FILE "03 - Down On The Corner.wav" WAVE INDEX 01 00:00:00 TRACK 04 AUDIO TITLE "Straight To The Moon" PERFORMER "Sheryl Crow" ISRC USAM19800362 INDEX 00 03:32:52FILE "04 - Straight To The Moon.wav" WAVE INDEX 01 00:00:00 TRACK 05 AUDIO TITLE "Against The Wind" PERFORMER "Brooks And Dunn" ISRC USAN29900113 INDEX 00 04:39:60FILE "05 - Against The Wind.wav" WAVE INDEX 01 00:00:00 TRACK 06 AUDIO TITLE "Piece Of My Heart" PERFORMER "Faith Hill" ISRC USWB19801257 INDEX 00 04:58:42FILE "06 - Piece Of My Heart.wav" WAVE INDEX 01 00:00:00 TRACK 07 AUDIO TITLE "I Know A Little" PERFORMER "Trace Adkins" ISRC 000000000000 INDEX 00 03:42:42FILE "07 - I Know A Little.wav" WAVE INDEX 01 00:00:00 TRACK 08 AUDIO TITLE "Mow Against The Grain" PERFORMER "The Hill Family Singers" ISRC 000000000000 INDEX 00 03:14:15FILE "08 - Mow Against The Grain.wav" WAVE INDEX 01 00:00:00 TRACK 09 AUDIO TITLE "East Bound And Down" PERFORMER "Tonic" ISRC USUR19925003 INDEX 00 04:12:30FILE "09 - East Bound And Down.wav" WAVE INDEX 01 00:00:00 TRACK 10 AUDIO TITLE "Free Fallin'" PERFORMER "Deana Carter" ISRC USSN19900116 INDEX 00 02:35:18FILE "10 - Free Fallin'.wav" WAVE INDEX 01 00:00:00 TRACK 11 AUDIO TITLE "Angel Flying Too Close To The Ground" PERFORMER "Willie Nelson and Mark McGrath" ISRC 000000000000 INDEX 00 04:48:25FILE "11 - Angel Flying Too Close To The Ground.wav" WAVE INDEX 01 00:00:00 TRACK 12 AUDIO TITLE "Teddy Bear" PERFORMER "Hank Hill" ISRC 000000000000 INDEX 00 05:13:35FILE "12 - Teddy Bear.wav" WAVE INDEX 01 00:00:00 TRACK 13 AUDIO TITLE "El Paso" PERFORMER "Old 97's" ISRC USEE19900641 INDEX 00 06:24:30FILE "13 - El Paso.wav" WAVE INDEX 01 00:00:00 TRACK 14 AUDIO TITLE "One Tin Soldier" PERFORMER "Luanne Platter" ISRC 000000000000 INDEX 00 05:07:25FILE "14 - One Tin Soldier.wav" WAVE INDEX 01 00:00:00 TRACK 15 AUDIO TITLE "King Of The Hill Theme" PERFORMER "The Refreshments" ISRC 000000000000 INDEX 00 04:11:02FILE "15 - King Of The Hill Theme.wav" WAVE INDEX 01 00:00:00


Трекер:  [ 02-Дек-2011 19:09 ]

  

Скачать .torrent

Размер .torrent файла 17 KB


Размер: 415 MB
Хэш (hash) релиза: f05aa54dc88c771a73a3dbdb52aacfe9e89ab48e

Еще никто не оставлял запись к записи скачать торрент Царь горы King Of The Hill - 1999, FLAC . Будь первым!

!Обратная связь