Скачать через торрент музыку Пила 1-7 Saw 3D бесплатно без регистрации torrent

Если у вас наблюдаются проблемы со скриншотами, переходом по ссылками, скачиванием торрентов - проблемы в блокировщике рекламы AdBlock. #хорошегоДня!


Статистика раздачи
Размер:  3.65 GB   |    Зарегистрирован:  5 лет 10 месяцев   |    .torrent скачан:  62 раза   |   
Раздают:  1  
   
Загрузка...
 
Автор Сообщение

Galfimbul

avatar Galfimbul


SAW

Жанр: Soundtrack || Страна: USA || Аудио кодек: FLAC || Тип рипа: tracks+.cue || Битрейт аудио: lossless || Источник: what.cd
01. Sturm Front - Line Assembly (06:07)
02. Charlie Clouser - Hello, Adam (03:58)
03. Fear Factory - Bite the Hand that Bleeds (04:02)
04. Charlie Clouser - Last I Heard (04:41)
05. Enemy - Action (03:43)
06. Charlie Clouser - Reverse Beartrap (04:47)
07. Pitbull Daycare - You Make Feel So Dead (03:49)
08. Charlie Clouser - X Marks the Spot (04:34)
09. Psycho Pomps - Wonderful World (05:01)
10. Charlie Clouser - Cigarette (03:07)
11. Charlie Clouser - We're Out of Tme (03:49)
12. Charlie Clouser - FxxK This Sx!T (04:09)
13. Charlie Clouser - Hello Zepp (03:01)
14. Charlie Clouser - Zepp Overature (02:38)
 
Exact Audio Copy V0.99 prebeta 5 from 4. May 2009

EAC extraction logfile from 15. November 2009, 11:52

Charlie Clouser / Saw

Used drive : TSSTcorpCDDVDW SH-S223Q Adapter: 3 ID: 0

Read mode : SecureUtilize accurate stream : YesDefeat audio cache : YesMake use of C2 pointers : No

Read offset correction : 6Overread into Lead-In and Lead-Out : NoFill up missing offset samples with silence : YesDelete leading and trailing silent blocks : NoNull samples used in CRC calculations : YesUsed interface : Installed external ASPI interfaceGap handling : Appended to previous track

Used output format : User Defined EncoderSelected bitrate : 896 kBit/sQuality : HighAdd ID3 tag : NoCommand line compressor : C:\Program Files\Exact Audio Copy\flac.exeAdditional command line options : -V -8 -T "artist=%a" -T "title=%t" -T "album=%g" -T "date=%y" -T "tracknumber=%n" -T "genre=%m" %s

TOC of the extracted CD

Track | Start | Length | Start sector | End sector --------------------------------------------------------- 1 | 0:00.00 | 6:07.27 | 0 | 27551 2 | 6:07.27 | 3:57.65 | 27552 | 45391 3 | 10:05.17 | 4:01.58 | 45392 | 63524 4 | 14:07.00 | 4:40.65 | 63525 | 84589 5 | 18:47.65 | 3:43.32 | 84590 | 101346 6 | 22:31.22 | 4:47.23 | 101347 | 122894 7 | 27:18.45 | 3:49.07 | 122895 | 140076 8 | 31:07.52 | 4:34.25 | 140077 | 160651 9 | 35:42.02 | 5:00.38 | 160652 | 183189 10 | 40:42.40 | 3:07.37 | 183190 | 197251 11 | 43:50.02 | 3:48.45 | 197252 | 214396 12 | 47:38.47 | 4:09.15 | 214397 | 233086 13 | 51:47.62 | 3:00.38 | 233087 | 246624 14 | 54:48.25 | 2:38.37 | 246625 | 258511

Track 1

Filename E:\uploads\Saw OST\01. Sturm Front , Line Assembly.wav

Pre-gap length 0:00:02.00

Peak level 92.6 % Track quality 100.0 % Test CRC F50EAE7D Copy CRC F50EAE7D Cannot be verified as accurate (confidence 8) [74D74795], AccurateRip returned [A9C13849] Copy OK

Track 2

Filename E:\uploads\Saw OST\02. Charlie Clouser , Hello, Adam.wav

Pre-gap length 0:00:01.02

Peak level 98.8 % Track quality 100.0 % Test CRC BA252543 Copy CRC BA252543 Cannot be verified as accurate (confidence 7) [94464BAE], AccurateRip returned [DB6C5F9E] Copy OK

Track 3

Filename E:\uploads\Saw OST\03. Fear Factory , Bite the Hand that Bleeds.wav

Peak level 93.6 % Track quality 100.0 % Test CRC 38184DB1 Copy CRC 38184DB1 Cannot be verified as accurate (confidence 8) [12EC5469], AccurateRip returned [07ECF82F] Copy OK

Track 4

Filename E:\uploads\Saw OST\04. Charlie Clouser , Last I Heard.wav

Peak level 98.8 % Track quality 100.0 % Test CRC FF63FA47 Copy CRC FF63FA47 Cannot be verified as accurate (confidence 7) [4029F934], AccurateRip returned [75CC0EC3] Copy OK

Track 5

Filename E:\uploads\Saw OST\05. Enemy , Action.wav

Peak level 98.8 % Track quality 100.0 % Test CRC 623D6A02 Copy CRC 623D6A02 Cannot be verified as accurate (confidence 8) [43B9E3E2], AccurateRip returned [DDE9C045] Copy OK

Track 6

Filename E:\uploads\Saw OST\06. Charlie Clouser , Reverse Beartrap.wav

Peak level 98.8 % Track quality 100.0 % Test CRC 3A7E1B05 Copy CRC 3A7E1B05 Cannot be verified as accurate (confidence 7) [C0D96DE9], AccurateRip returned [CEA2565D] Copy OK

Track 7

Filename E:\uploads\Saw OST\07. Pitbull Daycare , You Make Feel So Dead.wav

Pre-gap length 0:00:01.25

Peak level 93.5 % Track quality 100.0 % Test CRC 431E3FA4 Copy CRC 431E3FA4 Cannot be verified as accurate (confidence 7) [D15C35BB], AccurateRip returned [B8D4A5CB] Copy OK

Track 8

Filename E:\uploads\Saw OST\08. Charlie Clouser , X Marks the Spot.wav

Peak level 98.8 % Track quality 100.0 % Test CRC BD1DBBE7 Copy CRC BD1DBBE7 Cannot be verified as accurate (confidence 7) [9011DA8B], AccurateRip returned [FDEC9B38] Copy OK

Track 9

Filename E:\uploads\Saw OST\09. Psycho Pomps , Wonderful World.wav

Peak level 98.8 % Track quality 99.9 % Test CRC C958E548 Copy CRC C958E548 Cannot be verified as accurate (confidence 8) [D199A63D], AccurateRip returned [D8720364] Copy OK

Track 10

Filename E:\uploads\Saw OST\10. Charlie Clouser , Cigarette.wav

Peak level 98.8 % Track quality 100.0 % Test CRC F7F36196 Copy CRC F7F36196 Cannot be verified as accurate (confidence 7) [503D8FE7], AccurateRip returned [E637B074] Copy OK

Track 11

Filename E:\uploads\Saw OST\11. Charlie Clouser , We're Out of Tme.wav

Peak level 98.8 % Track quality 100.0 % Test CRC 1DC59C76 Copy CRC 1DC59C76 Cannot be verified as accurate (confidence 8) [56ECAC16], AccurateRip returned [B858E039] Copy OK

Track 12

Filename E:\uploads\Saw OST\12. Charlie Clouser , FxxK This Sx!T.wav

Peak level 100.0 % Track quality 100.0 % Test CRC CE0640CF Copy CRC CE0640CF Cannot be verified as accurate (confidence 8) [77F91BFF], AccurateRip returned [BD0468FB] Copy OK

Track 13

Filename E:\uploads\Saw OST\13. Charlie Clouser , Hello Zepp.wav

Peak level 98.8 % Track quality 100.0 % Test CRC FAB23E21 Copy CRC FAB23E21 Cannot be verified as accurate (confidence 7) [A7870B6E], AccurateRip returned [E3FD59CE] Copy OK

Track 14

Filename E:\uploads\Saw OST\14. Charlie Clouser , Zepp Overature.wav

Peak level 98.8 % Track quality 100.0 % Test CRC 3BBF72C8 Copy CRC 3BBF72C8 Cannot be verified as accurate (confidence 7) [659AAC94], AccurateRip returned [1C326AD3] Copy OK

No tracks could be verified as accurateYou may have a different pressing from the one(s) in the database

No errors occurred

End of status report
 
REM GENRE SoundtrackREM DATE 2004REM DISCID C30D760EREM COMMENT "ExactAudioCopy v0.99pb5"PERFORMER "Various Artists"TITLE "Saw"FILE "01 - Sturm Front - Line Assembly.wav" WAVE TRACK 01 AUDIO TITLE "Line Assembly" PERFORMER "Sturm Front" INDEX 01 00:00:00 TRACK 02 AUDIO TITLE "Hello, Adam" PERFORMER "Charlie Clouser" INDEX 00 06:06:25FILE "02 - Charlie Clouser - Hello, Adam.wav" WAVE INDEX 01 00:00:00FILE "03 - Fear Factory - Bite the Hand that Bleeds.wav" WAVE TRACK 03 AUDIO TITLE "Bite the Hand that Bleeds" PERFORMER "Fear Factory" INDEX 01 00:00:00FILE "04 - Charlie Clouser - Last I Heard.wav" WAVE TRACK 04 AUDIO TITLE "Last I Heard" PERFORMER "Charlie Clouser" INDEX 01 00:00:00FILE "05 - Enemy - Action.wav" WAVE TRACK 05 AUDIO TITLE "Action" PERFORMER "Enemy" INDEX 01 00:00:00FILE "06 - Charlie Clouser - Reverse Beartrap.wav" WAVE TRACK 06 AUDIO TITLE "Reverse Beartrap" PERFORMER "Charlie Clouser" INDEX 01 00:00:00 TRACK 07 AUDIO TITLE "You Make Feel So Dead" PERFORMER "Pitbull Daycare" INDEX 00 04:45:73FILE "07 - Pitbull Daycare - You Make Feel So Dead.wav" WAVE INDEX 01 00:00:00FILE "08 - Charlie Clouser - X Marks the Spot.wav" WAVE TRACK 08 AUDIO TITLE "X Marks the Spot" PERFORMER "Charlie Clouser" INDEX 01 00:00:00FILE "09 - Psycho Pomps - Wonderful World.wav" WAVE TRACK 09 AUDIO TITLE "Wonderful World" PERFORMER "Psycho Pomps" INDEX 01 00:00:00FILE "10 - Charlie Clouser - Cigarette.wav" WAVE TRACK 10 AUDIO TITLE "Cigarette" PERFORMER "Charlie Clouser" INDEX 01 00:00:00FILE "11 - Charlie Clouser - We're Out of Tme.wav" WAVE TRACK 11 AUDIO TITLE "We're Out of Tme" PERFORMER "Charlie Clouser" INDEX 01 00:00:00FILE "12 - Charlie Clouser - FxxK This Sx!T.wav" WAVE TRACK 12 AUDIO TITLE "FxxK This Sx!T" PERFORMER "Charlie Clouser" INDEX 01 00:00:00FILE "13 - Charlie Clouser - Hello Zepp.wav" WAVE TRACK 13 AUDIO TITLE "Hello Zepp" PERFORMER "Charlie Clouser" INDEX 01 00:00:00FILE "14 - Charlie Clouser - Zepp Overature.wav" WAVE TRACK 14 AUDIO TITLE "Zepp Overature" PERFORMER "Charlie Clouser" INDEX 01 00:00:00
01. Marilyn Manson - Irresponsible Hate Anthem (Venus Head Trap Mix) (03:40)
02. The Used - Sound Effects And Over Dramatics (03:28)
03. Mudvayne - Forget To Remember (03:33)
04. Bloodsimple - September (03:38)
05. Papa Roach - Blood (02:56)
06. Puscifer - Rev 22-20 (Rev 4-20 Mix) (04:47)
07. Sevendust - Pieces (03:06)
08. Skinny Puppy - Rodent (Ken Hiwatt Marshall Remix, DDT Mix) (05:00)
09. Queens Of The Stone Age - Burn The Witch (Unkle Variation) (03:04)
10. A Band Called Pain - Holy (03:43)
11. Buckethead & Friends - Three Fingers (With Saul Williams) (03:00)
12. The Legion Of Doom - Home Invasion Robbery (04:10)
13. Revolting Cocks & Gibby Haynes & Al Jourgensen - Caliente (Dark Entries) (04:28)
14. Opiate For The Masses - Step Up (03:24)
15. Charlie Clouser - Don't Forget The Rules (05:02)
16. London After Midnight - Fear (04:18)
17. Dope Stars Inc. - Make A Star (Saw Edit.) (04:02)
18. ASP - The 6th Of September (How Far Would You Go) (03:38)
19. Samsas Traum - Bis An Das Ende Der Zeit (03:46)
20. Lore - My Soul Speaks (04:05)
 
Exact Audio Copy V0.99 prebeta 5 from 4. May 2009

EAC extraction logfile from 14. May 2010, 3:20

SAW II / SAW II

Used drive : Optiarc DVD RW AD-7241S Adapter: 1 ID: 1

Read mode : SecureUtilize accurate stream : YesDefeat audio cache : YesMake use of C2 pointers : No

Read offset correction : 48Overread into Lead-In and Lead-Out : NoFill up missing offset samples with silence : YesDelete leading and trailing silent blocks : NoNull samples used in CRC calculations : YesUsed interface : Native Win32 interface for Win NT & 2000Gap handling : Appended to previous track

Used output format : User Defined EncoderSelected bitrate : 128 kBit/sQuality : HighAdd ID3 tag : NoCommand line compressor : C:\Program Files (x86)\Exact Audio Copy\Flac\flac.exeAdditional command line options : -8 -V -T "artist=%a" -T "title=%t" -T "album=%g" -T "date=%y" -T "tracknumber=%n" -T "genre=%m" %s

TOC of the extracted CD

Track | Start | Length | Start sector | End sector --------------------------------------------------------- 1 | 0:00.03 | 3:40.36 | 3 | 16538 2 | 3:40.39 | 3:28.00 | 16539 | 32138 3 | 7:08.39 | 3:33.05 | 32139 | 48118 4 | 10:41.44 | 3:38.09 | 48119 | 64477 5 | 14:19.53 | 2:56.28 | 64478 | 77705 6 | 17:16.06 | 4:47.13 | 77706 | 99243 7 | 22:03.19 | 3:06.10 | 99244 | 113203 8 | 25:09.29 | 5:00.32 | 113204 | 135735 9 | 30:09.61 | 3:04.03 | 135736 | 149538 10 | 33:13.64 | 3:43.05 | 149539 | 166268 11 | 36:56.69 | 3:00.29 | 166269 | 179797 12 | 39:57.23 | 4:10.36 | 179798 | 198583 13 | 44:07.59 | 4:28.07 | 198584 | 218690 14 | 48:35.66 | 3:24.18 | 218691 | 234008 15 | 52:00.09 | 5:02.34 | 234009 | 256692 16 | 57:02.43 | 4:18.00 | 256693 | 276042 17 | 61:20.43 | 4:01.46 | 276043 | 294163 18 | 65:22.14 | 3:37.41 | 294164 | 310479 19 | 68:59.55 | 3:46.12 | 310480 | 327441 20 | 72:45.67 | 4:04.46 | 327442 | 345787

Track 1

Filename C:\Users\chris\Desktop\Rips\01 - Marilyn Manson - Irresponsible Hate Anthem (Venus Head Trap Mix).wav

Pre-gap length 0:00:02.03

Peak level 97.7 % Track quality 99.9 % Test CRC F40C7B3A Copy CRC F40C7B3A Accurately ripped (confidence 3) [605898DA] Copy OK

Track 2

Filename C:\Users\chris\Desktop\Rips\02 - The Used - Sound Effects And Over Dramatics.wav

Peak level 95.5 % Track quality 100.0 % Test CRC 50868AA9 Copy CRC 50868AA9 Accurately ripped (confidence 3) [656FB027] Copy OK

Track 3

Filename C:\Users\chris\Desktop\Rips\03 - Mudvayne - Forget To Remember.wav

Peak level 87.1 % Track quality 100.0 % Test CRC 8BA96A91 Copy CRC 8BA96A91 Accurately ripped (confidence 3) [E30075D2] Copy OK

Track 4

Filename C:\Users\chris\Desktop\Rips\04 - Bloodsimple - September.wav

Peak level 96.6 % Track quality 100.0 % Test CRC 39F9E29C Copy CRC 39F9E29C Accurately ripped (confidence 3) [9EE920E8] Copy OK

Track 5

Filename C:\Users\chris\Desktop\Rips\05 - Papa Roach - Blood.wav

Peak level 95.5 % Track quality 100.0 % Test CRC 6F7A6119 Copy CRC 6F7A6119 Accurately ripped (confidence 3) [DAB2D68D] Copy OK

Track 6

Filename C:\Users\chris\Desktop\Rips\06 - Puscifer - Rev 22-20 (Rev 4-20 Mix).wav

Peak level 97.7 % Track quality 100.0 % Test CRC C8ED77F0 Copy CRC C8ED77F0 Accurately ripped (confidence 3) [AC18B4A0] Copy OK

Track 7

Filename C:\Users\chris\Desktop\Rips\07 - Sevendust - Pieces.wav

Peak level 96.6 % Track quality 100.0 % Test CRC 34458DDD Copy CRC 34458DDD Accurately ripped (confidence 3) [BDBFC7F6] Copy OK

Track 8

Filename C:\Users\chris\Desktop\Rips\08 - Skinny Puppy - Rodent (Ken Hiwatt Marshall Remix, DDT Mix).wav

Peak level 97.7 % Track quality 100.0 % Test CRC 7FF9A144 Copy CRC 7FF9A144 Accurately ripped (confidence 3) [C62F1C3E] Copy OK

Track 9

Filename C:\Users\chris\Desktop\Rips\09 - Queens Of The Stone Age - Burn The Witch (Unkle Variation).wav

Pre-gap length 0:00:01.02

Peak level 96.6 % Track quality 100.0 % Test CRC 29A48C6C Copy CRC 29A48C6C Accurately ripped (confidence 3) [1CF01751] Copy OK

Track 10

Filename C:\Users\chris\Desktop\Rips\10 - A Band Called Pain - Holy.wav

Peak level 95.5 % Track quality 100.0 % Test CRC E429E80A Copy CRC E429E80A Accurately ripped (confidence 3) [A6B52698] Copy OK

Track 11

Filename C:\Users\chris\Desktop\Rips\11 - Buckethead & Friends - Three Fingers (With Saul Williams).wav

Pre-gap length 0:00:01.05

Peak level 95.5 % Track quality 100.0 % Test CRC A7CC8920 Copy CRC A7CC8920 Accurately ripped (confidence 3) [173F7FF4] Copy OK

Track 12

Filename C:\Users\chris\Desktop\Rips\12 - The Legion Of Doom - Home Invasion Robbery.wav

Pre-gap length 0:00:01.22

Peak level 96.6 % Track quality 100.0 % Test CRC 1A0BAFA1 Copy CRC 1A0BAFA1 Accurately ripped (confidence 3) [8CE0BE4C] Copy OK

Track 13

Filename C:\Users\chris\Desktop\Rips\13 - Revolting Cocks & Gibby Haynes & Al Jourgensen - Caliente (Dark Entries).wav

Peak level 97.7 % Track quality 100.0 % Test CRC 90637200 Copy CRC 90637200 Accurately ripped (confidence 3) [5BCF4445] Copy OK

Track 14

Filename C:\Users\chris\Desktop\Rips\14 - Opiate For The Masses - Step Up.wav

Peak level 97.7 % Track quality 100.0 % Test CRC 89A6AD40 Copy CRC 89A6AD40 Accurately ripped (confidence 3) [8A5A0646] Copy OK

Track 15

Filename C:\Users\chris\Desktop\Rips\15 - Charlie Clouser - Don't Forget The Rules.wav

Pre-gap length 0:00:01.08

Peak level 97.7 % Track quality 100.0 % Test CRC 33A1F414 Copy CRC 33A1F414 Accurately ripped (confidence 3) [96B47A50] Copy OK

Track 16

Filename C:\Users\chris\Desktop\Rips\16 - London After Midnight - Fear.wav

Pre-gap length 0:00:00.21

Peak level 97.7 % Track quality 99.9 % Test CRC 9D2C1828 Copy CRC 9D2C1828 Accurately ripped (confidence 3) [A455579E] Copy OK

Track 17

Filename C:\Users\chris\Desktop\Rips\17 - Dope Stars Inc. - Make A Star (Saw Edit.).wav

Pre-gap length 0:00:00.21

Peak level 97.7 % Track quality 100.0 % Test CRC B9C7FFA8 Copy CRC B9C7FFA8 Accurately ripped (confidence 3) [D0EE3DF5] Copy OK

Track 18

Filename C:\Users\chris\Desktop\Rips\18 - ASP - The 6th Of September (How Far Would You Go).wav

Pre-gap length 0:00:00.21

Peak level 97.7 % Track quality 100.0 % Test CRC 1E858B95 Copy CRC 1E858B95 Accurately ripped (confidence 3) [31A8CB96] Copy OK

Track 19

Filename C:\Users\chris\Desktop\Rips\19 - Samsas Traum - Bis An Das Ende Der Zeit.wav

Pre-gap length 0:00:00.21

Peak level 97.7 % Track quality 100.0 % Test CRC 1E72AAA8 Copy CRC 1E72AAA8 Accurately ripped (confidence 3) [F75A59C4] Copy OK

Track 20

Filename C:\Users\chris\Desktop\Rips\20 - Lore - My Soul Speaks.wav

Pre-gap length 0:00:00.21

Peak level 100.0 % Track quality 100.0 % Test CRC D0B207B7 Copy CRC D0B207B7 Accurately ripped (confidence 3) [0E5947E7] Copy OK

All tracks accurately ripped

No errors occurred

End of status report
 
REM GENRE SoundtrackREM DATE 2006REM DISCID 12120214REM COMMENT "ExactAudioCopy v0.99pb5"PERFORMER "Various Artists"TITLE "Saw II"FILE "01 - Marilyn Manson - Irresponsible Hate Anthem (Venus Head Trap Mix).wav" WAVE TRACK 01 AUDIO TITLE "Irresponsible Hate Anthem (Venus Head Trap Mix)" PERFORMER "Marilyn Manson" PREGAP 00:00:03 INDEX 01 00:00:00FILE "02 - The Used - Sound Effects And Over Dramatics.wav" WAVE TRACK 02 AUDIO TITLE "Sound Effects And Over Dramatics" PERFORMER "The Used" INDEX 01 00:00:00FILE "03 - Mudvayne - Forget To Remember.wav" WAVE TRACK 03 AUDIO TITLE "Forget To Remember" PERFORMER "Mudvayne" INDEX 01 00:00:00FILE "04 - Bloodsimple - September.wav" WAVE TRACK 04 AUDIO TITLE "September" PERFORMER "Bloodsimple" INDEX 01 00:00:00FILE "05 - Papa Roach - Blood.wav" WAVE TRACK 05 AUDIO TITLE "Blood" PERFORMER "Papa Roach" INDEX 01 00:00:00FILE "06 - Puscifer - Rev 22-20 (Rev 4-20 Mix).wav" WAVE TRACK 06 AUDIO TITLE "Rev 22-20 (Rev 4-20 Mix)" PERFORMER Puscifer INDEX 01 00:00:00FILE "07 - Sevendust - Pieces.wav" WAVE TRACK 07 AUDIO TITLE "Pieces" PERFORMER "Sevendust" INDEX 01 00:00:00FILE "08 - Skinny Puppy - Rodent (Ken Hiwatt Marshall Remix, DDT Mix).wav" WAVE TRACK 08 AUDIO TITLE "Rodent (Ken Hiwatt Marshall Remix, DDT Mix)" PERFORMER "Skinny Puppy" INDEX 01 00:00:00 TRACK 09 AUDIO TITLE "Burn The Witch (Unkle Variation)" PERFORMER "Queens Of The Stone Age" INDEX 00 04:59:30FILE "09 - Queens Of The Stone Age - Burn The Witch (Unkle Variation).wav" WAVE INDEX 01 00:00:00FILE "10 - A Band Called Pain - Holy.wav" WAVE TRACK 10 AUDIO TITLE "Holy" PERFORMER "A Band Called Pain" INDEX 01 00:00:00 TRACK 11 AUDIO TITLE "Three Fingers (With Saul Williams)" PERFORMER "Buckethead & Friends" INDEX 00 03:42:00FILE "11 - Buckethead & Friends - Three Fingers (With Saul Williams).wav" WAVE INDEX 01 00:00:00 TRACK 12 AUDIO TITLE "Home Invasion Robbery" PERFORMER "The Legion Of Doom" INDEX 00 02:59:07FILE "12 - The Legion Of Doom - Home Invasion Robbery.wav" WAVE INDEX 01 00:00:00FILE "13 - Revolting Cocks & Gibby Haynes & Al Jourgensen - Caliente (Dark Entries).wav" WAVE TRACK 13 AUDIO TITLE "Caliente (Dark Entries)" PERFORMER "Revolting Cocks & Gibby Haynes & Al Jourgensen" INDEX 01 00:00:00FILE "14 - Opiate For The Masses - Step Up.wav" WAVE TRACK 14 AUDIO TITLE "Step Up" PERFORMER "Opiate For The Masses" INDEX 01 00:00:00 TRACK 15 AUDIO TITLE "Don't Forget The Rules" PERFORMER "Charlie Clouser" INDEX 00 03:23:10FILE "15 - Charlie Clouser - Don't Forget The Rules.wav" WAVE INDEX 01 00:00:00 TRACK 16 AUDIO TITLE "Fear" PERFORMER "London After Midnight" INDEX 00 05:02:13FILE "16 - London After Midnight - Fear.wav" WAVE INDEX 01 00:00:00 TRACK 17 AUDIO TITLE "Make A Star (Saw Edit.)" PERFORMER "Dope Stars Inc." INDEX 00 04:17:54FILE "17 - Dope Stars Inc. - Make A Star (Saw Edit.).wav" WAVE INDEX 01 00:00:00 TRACK 18 AUDIO TITLE "The 6th Of September (How Far Would You Go)" PERFORMER "ASP" INDEX 00 04:01:25FILE "18 - ASP - The 6th Of September (How Far Would You Go).wav" WAVE INDEX 01 00:00:00 TRACK 19 AUDIO TITLE "Bis An Das Ende Der Zeit" PERFORMER "Samsas Traum" INDEX 00 03:37:20FILE "19 - Samsas Traum - Bis An Das Ende Der Zeit.wav" WAVE INDEX 01 00:00:00 TRACK 20 AUDIO TITLE "My Soul Speaks" PERFORMER "Lore" INDEX 00 03:45:66FILE "20 - Lore - My Soul Speaks.wav" WAVE INDEX 01 00:00:00
01. All That Remains - This Calling (03:41)
02. Static-X - No Submission (02:43)
03. Slayer - Eyes Of The Insane (03:24)
04. Lamb of God - Walk With Me in Hell (05:14)
05. Helmet - Monochrome (03:49)
06. Disturbed - Guarded (03:23)
07. Blue October - Drilled a Wire Through My Cheek (04:28)
08. Drowning Pool - No More (04:29)
09. Avenged Sevenfold - Burn It Down (05:02)
10. Eighteen Visions - Your Nightmare (03:26)
11. Dope Stars Inc. - Getting Closer (03:13)
12. Bullet For My Valentine - Suffocating Words of Sorrow (What Can I Do) (03:38)
13. Ministry - Fear Is a Big Business (04:54)
14. Mastadon - The Wolf Is Loose (03:37)
15. Hydrovibe (feat. Shawnee Smith) - Killer Inside (03:20)
16. Hourcast - Sakkura (03:47)
17. Lore (feat. Sean Brennan & London After Midnight) - Haunting (03:38)
18. Samsas Traum - Anti (03:29)
19. Brendon Small - Hatredcopter (03:00)
20. Emilie Autumn - Organ Grinder (03:21)
 
Exact Audio Copy V0.99 prebeta 5 from 4. May 2009

EAC extraction logfile from 4. April 2010, 19:17

Various / SAW III

Used drive : PHILIPS DROM6216 Adapter: 1 ID: 0

Read mode : SecureUtilize accurate stream : YesDefeat audio cache : YesMake use of C2 pointers : No

Read offset correction : 738Overread into Lead-In and Lead-Out : NoFill up missing offset samples with silence : YesDelete leading and trailing silent blocks : NoNull samples used in CRC calculations : YesUsed interface : Native Win32 interface for Win NT & 2000Gap handling : Appended to previous track

Used output format : User Defined EncoderSelected bitrate : 128 kBit/sQuality : HighAdd ID3 tag : NoCommand line compressor : D:\Programme\Exact Audio Copy\Flac\flac.exeAdditional command line options : -8 -V -T "artist=%a" -T "title=%t" -T "album=%g" -T "date=%y" -T "tracknumber=%n" -T "genre=%m" %s

TOC of the extracted CD

Track | Start | Length | Start sector | End sector --------------------------------------------------------- 1 | 0:00.00 | 3:41.03 | 0 | 16577 2 | 3:41.03 | 2:42.63 | 16578 | 28790 3 | 6:23.66 | 3:24.14 | 28791 | 44104 4 | 9:48.05 | 5:13.55 | 44105 | 67634 5 | 15:01.60 | 3:49.26 | 67635 | 84835 6 | 18:51.11 | 3:23.15 | 84836 | 100075 7 | 22:14.26 | 4:28.04 | 100076 | 120179 8 | 26:42.30 | 4:28.40 | 120180 | 140319 9 | 31:10.70 | 5:01.72 | 140320 | 162966 10 | 36:12.67 | 3:25.56 | 162967 | 178397 11 | 39:38.48 | 3:12.66 | 178398 | 192863 12 | 42:51.39 | 3:38.19 | 192864 | 209232 13 | 46:29.58 | 4:54.14 | 209233 | 231296 14 | 51:23.72 | 3:36.58 | 231297 | 247554 15 | 55:00.55 | 3:20.05 | 247555 | 262559 16 | 58:20.60 | 3:47.09 | 262560 | 279593 17 | 62:07.69 | 3:37.47 | 279594 | 295915 18 | 65:45.41 | 3:29.33 | 295916 | 311623 19 | 69:14.74 | 3:00.08 | 311624 | 325131 20 | 72:15.07 | 3:20.63 | 325132 | 340194

Track 1

Filename D:\Rips\01 - This Calling.wav

Pre-gap length 0:00:02.00

Peak level 96.6 % Track quality 100.0 % Test CRC C4DEB743 Copy CRC C4DEB743 Accurately ripped (confidence 1) [3A2EB6B0] Copy OK

Track 2

Filename D:\Rips\02 - No Submission.wav

Pre-gap length 0:00:01.59

Peak level 96.9 % Track quality 100.0 % Test CRC 9ABA63FE Copy CRC 9ABA63FE Accurately ripped (confidence 1) [1753339D] Copy OK

Track 3

Filename D:\Rips\03 - Eyes Of The Insane.wav

Pre-gap length 0:00:01.59

Peak level 89.1 % Track quality 99.9 % Test CRC 73DB2F84 Copy CRC 73DB2F84 Accurately ripped (confidence 1) [8769F190] Copy OK

Track 4

Filename D:\Rips\04 - Walk With Me In Hell.wav

Pre-gap length 0:00:01.63

Peak level 98.8 % Track quality 100.0 % Test CRC 6E104E66 Copy CRC 6E104E66 Accurately ripped (confidence 1) [41B61287] Copy OK

Track 5

Filename D:\Rips\05 - Monochrome.wav

Pre-gap length 0:00:01.50

Peak level 100.0 % Track quality 100.0 % Test CRC B8C48954 Copy CRC B8C48954 Accurately ripped (confidence 1) [29C3C12B] Copy OK

Track 6

Filename D:\Rips\06 - Guarded.wav

Pre-gap length 0:00:01.51

Peak level 93.1 % Track quality 99.9 % Test CRC 0A8EA25C Copy CRC 0A8EA25C Accurately ripped (confidence 1) [AEE1BE47] Copy OK

Track 7

Filename D:\Rips\07 - Drilled A Wire Through My Cheek.wav

Pre-gap length 0:00:01.53

Peak level 89.1 % Track quality 100.0 % Test CRC AEB22DEE Copy CRC AEB22DEE Accurately ripped (confidence 1) [D302B430] Copy OK

Track 8

Filename D:\Rips\08 - No More.wav

Pre-gap length 0:00:01.49

Peak level 94.4 % Track quality 100.0 % Test CRC 7840959D Copy CRC 7840959D Accurately ripped (confidence 1) [9C4C1B9E] Copy OK

Track 9

Filename D:\Rips\09 - Burn It Down.wav

Pre-gap length 0:00:01.50

Peak level 93.4 % Track quality 100.0 % Test CRC D507E8A2 Copy CRC D507E8A2 Accurately ripped (confidence 1) [B0F4A900] Copy OK

Track 10

Filename D:\Rips\10 - Your Nightmare.wav

Pre-gap length 0:00:01.42

Peak level 100.0 % Track quality 100.0 % Test CRC D7158E47 Copy CRC D7158E47 Accurately ripped (confidence 1) [3A9E5447] Copy OK

Track 11

Filename D:\Rips\11 - Getting Closer.wav

Pre-gap length 0:00:01.58

Peak level 98.7 % Track quality 100.0 % Test CRC FD9D0C0C Copy CRC FD9D0C0C Track not present in AccurateRip database Copy OK

Track 12

Filename D:\Rips\12 - Suffocating Under Words Of Sorrow (What Can I Do).wav

Pre-gap length 0:00:01.40

Peak level 89.1 % Track quality 100.0 % Test CRC CE43C428 Copy CRC CE43C428 Accurately ripped (confidence 1) [B4958EB5] Copy OK

Track 13

Filename D:\Rips\13 - Fear Is Big Business.wav

Pre-gap length 0:00:01.54

Peak level 100.0 % Track quality 99.9 % Test CRC BE656CE5 Copy CRC BE656CE5 Accurately ripped (confidence 1) [9E677533] Copy OK

Track 14

Filename D:\Rips\14 - The Wold Is Loose.wav

Pre-gap length 0:00:01.58

Peak level 84.1 % Track quality 100.0 % Test CRC DA52C852 Copy CRC DA52C852 Accurately ripped (confidence 1) [146F4AF9] Copy OK

Track 15

Filename D:\Rips\15 - Killer Inside.wav

Pre-gap length 0:00:01.36

Peak level 100.0 % Track quality 100.0 % Test CRC 88951AC3 Copy CRC 88951AC3 Accurately ripped (confidence 1) [5403E563] Copy OK

Track 16

Filename D:\Rips\16 - Sakkara.wav

Pre-gap length 0:00:01.49

Peak level 99.7 % Track quality 99.9 % Test CRC 18165156 Copy CRC 18165156 Accurately ripped (confidence 1) [635B2CF0] Copy OK

Track 17

Filename D:\Rips\17 - Haunting.wav

Pre-gap length 0:00:01.50

Peak level 97.7 % Track quality 100.0 % Test CRC 5C0B2D5E Copy CRC 5C0B2D5E Accurately ripped (confidence 1) [AA642E1E] Copy OK

Track 18

Filename D:\Rips\18 - Anti.wav

Pre-gap length 0:00:01.34

Peak level 98.7 % Track quality 100.0 % Test CRC D86DF73C Copy CRC D86DF73C Accurately ripped (confidence 1) [319DC7BD] Copy OK

Track 19

Filename D:\Rips\19 - Hatredcopter.wav

Pre-gap length 0:00:01.45

Peak level 98.7 % Track quality 100.0 % Test CRC EC480039 Copy CRC EC480039 Accurately ripped (confidence 1) [62329A05] Copy OK

Track 20

Filename D:\Rips\20 - Organ Grinder.wav

Pre-gap length 0:00:01.47

Peak level 98.7 % Track quality 100.0 % Test CRC 88866C7E Copy CRC 88866C7E Accurately ripped (confidence 1) [F9BCD377] Copy OK

19 track(s) accurately ripped 1 track(s) not present in the AccurateRip database

Some tracks could not be verified as accurate

No errors occurred

End of status report
 
REM GENRE SoundtrackREM DATE 2007REM DISCID 1411B714REM COMMENT "ExactAudioCopy v0.99pb5"PERFORMER "Various Artists"TITLE "Saw III"FILE "01 - All That Remains - This Calling.wav" WAVE TRACK 01 AUDIO TITLE "This Calling" PERFORMER "All That Remains" INDEX 01 00:00:00 TRACK 02 AUDIO TITLE "No Submission" PERFORMER "Static-X" INDEX 00 03:39:19FILE "02 - Static-X - No Submission.wav" WAVE INDEX 01 00:00:00 TRACK 03 AUDIO TITLE "Eyes Of The Insane" PERFORMER "Slayer" INDEX 00 02:41:04FILE "03 - Slayer - Eyes Of The Insane.wav" WAVE INDEX 01 00:00:00 TRACK 04 AUDIO TITLE "Walk With Me in Hell" PERFORMER "Lamb of God" INDEX 00 03:22:26FILE "04 - Lamb of God - Walk With Me in Hell.wav" WAVE INDEX 01 00:00:00 TRACK 05 AUDIO TITLE "Monochrome" PERFORMER "Helmet" INDEX 00 05:12:05FILE "05 - Helmet - Monochrome.wav" WAVE INDEX 01 00:00:00 TRACK 06 AUDIO TITLE "Guarded" PERFORMER "Disturbed" INDEX 00 03:47:50FILE "06 - Disturbed - Guarded.wav" WAVE INDEX 01 00:00:00 TRACK 07 AUDIO TITLE "Drilled a Wire Through My Cheek" PERFORMER "Blue October" INDEX 00 03:21:37FILE "07 - Blue October - Drilled a Wire Through My Cheek.wav" WAVE INDEX 01 00:00:00 TRACK 08 AUDIO TITLE "No More" PERFORMER "Drowning Pool" INDEX 00 04:26:30FILE "08 - Drowning Pool - No More.wav" WAVE INDEX 01 00:00:00 TRACK 09 AUDIO TITLE "Burn It Down" PERFORMER "Avenged Sevenfold" INDEX 00 04:26:65FILE "09 - Avenged Sevenfold - Burn It Down.wav" WAVE INDEX 01 00:00:00 TRACK 10 AUDIO TITLE "Your Nightmare" PERFORMER "Eighteen Visions" INDEX 00 05:00:30FILE "10 - Eighteen Visions - Your Nightmare.wav" WAVE INDEX 01 00:00:00 TRACK 11 AUDIO TITLE "Getting Closer" PERFORMER "Dope Stars Inc." INDEX 00 03:23:73FILE "11 - Dope Stars Inc. - Getting Closer.wav" WAVE INDEX 01 00:00:00 TRACK 12 AUDIO TITLE "Suffocating Words of Sorrow (What Can I Do)" PERFORMER "Bullet For My Valentine" INDEX 00 03:11:26FILE "12 - Bullet For My Valentine - Suffocating Words of Sorrow (What Can I Do).wav" WAVE INDEX 01 00:00:00 TRACK 13 AUDIO TITLE "Fear Is a Big Business" PERFORMER "Ministry" INDEX 00 03:36:40FILE "13 - Ministry - Fear Is a Big Business.wav" WAVE INDEX 01 00:00:00 TRACK 14 AUDIO TITLE "The Wolf Is Loose" PERFORMER "Mastadon" INDEX 00 04:52:31FILE "14 - Mastadon - The Wolf Is Loose.wav" WAVE INDEX 01 00:00:00 TRACK 15 AUDIO TITLE "Killer Inside" PERFORMER "Hydrovibe (feat. Shawnee Smith)" INDEX 00 03:35:22FILE "15 - Hydrovibe (feat. Shawnee Smith) - Killer Inside.wav" WAVE INDEX 01 00:00:00 TRACK 16 AUDIO TITLE "Sakkura" PERFORMER "Hourcast" INDEX 00 03:18:31FILE "16 - Hourcast - Sakkura.wav" WAVE INDEX 01 00:00:00 TRACK 17 AUDIO TITLE "Haunting" PERFORMER "Lore (feat. Sean Brennan & London After Midnight)" INDEX 00 03:45:34FILE "17 - Lore (feat. Sean Brennan & London After Midnight) - Haunting.wav" WAVE INDEX 01 00:00:00 TRACK 18 AUDIO TITLE "Anti" PERFORMER "Samsas Traum" INDEX 00 03:36:13FILE "18 - Samsas Traum - Anti.wav" WAVE INDEX 01 00:00:00 TRACK 19 AUDIO TITLE Hatredcopter PERFORMER "Brendon Small" INDEX 00 03:27:63FILE "19 - Brendon Small - Hatredcopter.wav" WAVE INDEX 01 00:00:00 TRACK 20 AUDIO TITLE "Organ Grinder" PERFORMER "Emilie Autumn" INDEX 00 02:58:36FILE "20 - Emilie Autumn - Organ Grinder.wav" WAVE INDEX 01 00:00:00
01 - Footcuffed (03:11)
02 - In Chains (01:37)
03 - Carrie (02:32)
04 - Rib Caged (02:47)
05 - Divorced (02:51)
06 - Amanda (02:13)
07 - Hello Lynn (03:29)
08 - Daughter (02:46)
09 - Tin Box (02:04)
10 - Freezer (02:39)
11 - Surprised (02:02)
12 - Some Things (01:54)
13 - Doll Hall (02:17)
14 - Pig Juicer (03:50)
15 - Prep (00:55)
16 - Surgery (04:36)
17 - Baptism (03:02)
18 - Shithole (03:17)
19 - The Ring (01:41)
20 - Hello Tim (02:16)
21 - The Rack (02:35)
22 - Lynn Talks (01:58)
23 - Rules (02:25)
24 - Fight Eric (02:38)
25 - Your Test (02:21)
26 - Fix Me (03:30)
27 - Final Test (01:48)
 
Exact Audio Copy V0.99 prebeta 5 from 4. May 2009

EAC extraction logfile from 4. April 2010, 18:02

SAW III (Original Score) / SAW III (Original Score)

Used drive : PHILIPS DROM6216 Adapter: 1 ID: 0

Read mode : SecureUtilize accurate stream : YesDefeat audio cache : YesMake use of C2 pointers : No

Read offset correction : 738Overread into Lead-In and Lead-Out : NoFill up missing offset samples with silence : YesDelete leading and trailing silent blocks : NoNull samples used in CRC calculations : YesUsed interface : Native Win32 interface for Win NT & 2000Gap handling : Appended to previous track

Used output format : User Defined EncoderSelected bitrate : 128 kBit/sQuality : HighAdd ID3 tag : NoCommand line compressor : D:\Programme\Exact Audio Copy\Flac\flac.exeAdditional command line options : -8 -V -T "artist=%a" -T "title=%t" -T "album=%g" -T "date=%y" -T "tracknumber=%n" -T "genre=%m" %s

TOC of the extracted CD

Track | Start | Length | Start sector | End sector --------------------------------------------------------- 1 | 0:00.00 | 3:11.19 | 0 | 14343 2 | 3:11.19 | 1:37.26 | 14344 | 21644 3 | 4:48.45 | 2:32.17 | 21645 | 33061 4 | 7:20.62 | 2:46.57 | 33062 | 45568 5 | 10:07.44 | 2:50.69 | 45569 | 58387 6 | 12:58.38 | 2:12.73 | 58388 | 68360 7 | 15:11.36 | 3:28.43 | 68361 | 84003 8 | 18:40.04 | 2:46.13 | 84004 | 96466 9 | 21:26.17 | 2:03.62 | 96467 | 105753 10 | 23:30.04 | 2:39.03 | 105754 | 117681 11 | 26:09.07 | 2:02.11 | 117682 | 126842 12 | 28:11.18 | 1:54.31 | 126843 | 135423 13 | 30:05.49 | 2:16.60 | 135424 | 145683 14 | 32:22.34 | 3:49.69 | 145684 | 162927 15 | 36:12.28 | 0:55.34 | 162928 | 167086 16 | 37:07.62 | 4:35.48 | 167087 | 187759 17 | 41:43.35 | 3:02.25 | 187760 | 201434 18 | 44:45.60 | 3:17.00 | 201435 | 216209 19 | 48:02.60 | 1:40.64 | 216210 | 223773 20 | 49:43.49 | 2:15.70 | 223774 | 233968 21 | 51:59.44 | 2:35.27 | 233969 | 245620 22 | 54:34.71 | 1:58.01 | 245621 | 254471 23 | 56:32.72 | 2:24.59 | 254472 | 265330 24 | 58:57.56 | 2:38.26 | 265331 | 277206 25 | 61:36.07 | 2:21.32 | 277207 | 287813 26 | 63:57.39 | 3:29.43 | 287814 | 303531 27 | 67:27.07 | 1:48.12 | 303532 | 311643

Track 1

Filename D:\Rips\01 - SAW III (Original Score) - 01 - Charlie Closer - Footcuffed.wav

Pre-gap length 0:00:02.00

Peak level 93.3 % Track quality 99.9 % Test CRC D523A334 Copy CRC D523A334 Accurately ripped (confidence 1) [7218DFC9] Copy OK

Track 2

Filename D:\Rips\02 - SAW III (Original Score) - 02 - Charlie Closer - In Chains.wav

Peak level 93.3 % Track quality 100.0 % Test CRC D1188BDC Copy CRC D1188BDC Accurately ripped (confidence 1) [F263F06D] Copy OK

Track 3

Filename D:\Rips\03 - SAW III (Original Score) - 03 - Charlie Closer - Carrie.wav

Peak level 93.3 % Track quality 100.0 % Test CRC FE134F89 Copy CRC FE134F89 Accurately ripped (confidence 1) [593EA640] Copy OK

Track 4

Filename D:\Rips\04 - SAW III (Original Score) - 04 - Charlie Closer - Rib Caged.wav

Peak level 93.3 % Track quality 100.0 % Test CRC CF67E2AB Copy CRC CF67E2AB Accurately ripped (confidence 1) [ABEB6496] Copy OK

Track 5

Filename D:\Rips\05 - SAW III (Original Score) - 05 - Charlie Closer - Divorce.wav

Peak level 93.3 % Track quality 100.0 % Test CRC 7DD040A7 Copy CRC 7DD040A7 Accurately ripped (confidence 1) [B9C5B7B2] Copy OK

Track 6

Filename D:\Rips\06 - SAW III (Original Score) - 06 - Charlie Closer - Amanda.wav

Peak level 93.3 % Track quality 100.0 % Test CRC 5A8035EF Copy CRC 5A8035EF Accurately ripped (confidence 1) [B2A3367D] Copy OK

Track 7

Filename D:\Rips\07 - SAW III (Original Score) - 07 - Charlie Closer - Hello Lynn.wav

Peak level 93.3 % Track quality 100.0 % Test CRC DB8561DC Copy CRC DB8561DC Accurately ripped (confidence 1) [0B7B95E5] Copy OK

Track 8

Filename D:\Rips\08 - SAW III (Original Score) - 08 - Charlie Closer - Daughter.wav

Peak level 93.3 % Track quality 100.0 % Test CRC A922CDBA Copy CRC A922CDBA Accurately ripped (confidence 1) [4B2328BD] Copy OK

Track 9

Filename D:\Rips\09 - SAW III (Original Score) - 09 - Charlie Closer - Tin Box.wav

Peak level 93.3 % Track quality 100.0 % Test CRC 6963738E Copy CRC 6963738E Accurately ripped (confidence 1) [97E895A5] Copy OK

Track 10

Filename D:\Rips\10 - SAW III (Original Score) - 10 - Charlie Closer - Freezer.wav

Peak level 93.3 % Track quality 99.9 % Test CRC C9E353DD Copy CRC C9E353DD Accurately ripped (confidence 1) [E897DF1C] Copy OK

Track 11

Filename D:\Rips\11 - SAW III (Original Score) - 11 - Charlie Closer - Surprised.wav

Peak level 93.3 % Track quality 100.0 % Test CRC E9C0991A Copy CRC E9C0991A Accurately ripped (confidence 1) [7FC4A15A] Copy OK

Track 12

Filename D:\Rips\12 - SAW III (Original Score) - 12 - Charlie Closer - Some Things.wav

Peak level 93.3 % Track quality 100.0 % Test CRC 423C1C40 Copy CRC 423C1C40 Accurately ripped (confidence 1) [3E6960EA] Copy OK

Track 13

Filename D:\Rips\13 - SAW III (Original Score) - 13 - Charlie Closer - Doll Hall.wav

Peak level 93.3 % Track quality 99.9 % Test CRC 566F7CB8 Copy CRC 566F7CB8 Accurately ripped (confidence 1) [EB2606A5] Copy OK

Track 14

Filename D:\Rips\14 - SAW III (Original Score) - 14 - Charlie Closer - Pig Juicer.wav

Peak level 93.3 % Track quality 100.0 % Test CRC 19557A3D Copy CRC 19557A3D Accurately ripped (confidence 1) [C3C2AE42] Copy OK

Track 15

Filename D:\Rips\15 - SAW III (Original Score) - 15 - Charlie Closer - Prep.wav

Peak level 93.3 % Track quality 99.8 % Test CRC 1FD4E069 Copy CRC 1FD4E069 Accurately ripped (confidence 1) [7B3B9B63] Copy OK

Track 16

Filename D:\Rips\16 - SAW III (Original Score) - 16 - Charlie Closer - Surgery.wav

Peak level 93.3 % Track quality 100.0 % Test CRC 704869F0 Copy CRC 704869F0 Accurately ripped (confidence 1) [F7B2F843] Copy OK

Track 17

Filename D:\Rips\17 - SAW III (Original Score) - 17 - Charlie Closer - Baptism.wav

Peak level 93.3 % Track quality 100.0 % Test CRC A90B4AF3 Copy CRC A90B4AF3 Accurately ripped (confidence 1) [1800D758] Copy OK

Track 18

Filename D:\Rips\18 - SAW III (Original Score) - 18 - Charlie Closer - Shithole.wav

Peak level 93.3 % Track quality 100.0 % Test CRC E1B16153 Copy CRC E1B16153 Accurately ripped (confidence 1) [4654FC3B] Copy OK

Track 19

Filename D:\Rips\19 - SAW III (Original Score) - 19 - Charlie Closer - The Ring.wav

Peak level 93.3 % Track quality 100.0 % Test CRC D8A5A11B Copy CRC D8A5A11B Accurately ripped (confidence 1) [27D59A71] Copy OK

Track 20

Filename D:\Rips\20 - SAW III (Original Score) - 20 - Charlie Closer - Hello Tim.wav

Peak level 93.3 % Track quality 100.0 % Test CRC 0802C747 Copy CRC 0802C747 Accurately ripped (confidence 1) [E281E079] Copy OK

Track 21

Filename D:\Rips\21 - SAW III (Original Score) - 21 - Charlie Closer - The Rack.wav

Peak level 93.3 % Track quality 100.0 % Test CRC 4E2615B3 Copy CRC 4E2615B3 Accurately ripped (confidence 1) [2B703B35] Copy OK

Track 22

Filename D:\Rips\22 - SAW III (Original Score) - 22 - Charlie Closer - Lynn Talks.wav

Peak level 93.3 % Track quality 100.0 % Test CRC B30DBC1B Copy CRC B30DBC1B Accurately ripped (confidence 1) [9CB0F4DB] Copy OK

Track 23

Filename D:\Rips\23 - SAW III (Original Score) - 23 - Charlie Closer - Rules.wav

Peak level 93.3 % Track quality 99.9 % Test CRC D56DB766 Copy CRC D56DB766 Accurately ripped (confidence 1) [FB845158] Copy OK

Track 24

Filename D:\Rips\24 - SAW III (Original Score) - 24 - Charlie Closer - Fight Eric.wav

Peak level 93.3 % Track quality 100.0 % Test CRC F2BA9F74 Copy CRC F2BA9F74 Accurately ripped (confidence 1) [FF5197C3] Copy OK

Track 25

Filename D:\Rips\25 - SAW III (Original Score) - 25 - Charlie Closer - Your Test.wav

Peak level 93.3 % Track quality 99.9 % Test CRC 91C614A5 Copy CRC 91C614A5 Accurately ripped (confidence 1) [833B15FD] Copy OK

Track 26

Filename D:\Rips\26 - SAW III (Original Score) - 26 - Charlie Closer - Fix Me.wav

Peak level 93.3 % Track quality 100.0 % Test CRC E3793EE3 Copy CRC E3793EE3 Accurately ripped (confidence 1) [E97FB857] Copy OK

Track 27

Filename D:\Rips\27 - SAW III (Original Score) - 27 - Charlie Closer - Final Test.wav

Peak level 93.3 % Track quality 100.0 % Test CRC C3EF1B71 Copy CRC C3EF1B71 Accurately ripped (confidence 1) [213ABA2D] Copy OK

All tracks accurately ripped

No errors occurred

End of status report
 
REM GENRE SoundtrackREM DATE 2007REM DISCID A4103B1BREM COMMENT "ExactAudioCopy v0.99pb5"PERFORMER "Charlie Clouser"TITLE "SAW III"FILE "01 - Footcuffed.wav" WAVE TRACK 01 AUDIO TITLE "Footcuffed" PERFORMER "Charlie Clouser" INDEX 01 00:00:00FILE "02 - In Chains.wav" WAVE TRACK 02 AUDIO TITLE "In Chains" PERFORMER "Charlie Clouser" INDEX 01 00:00:00FILE "03 - Carrie.wav" WAVE TRACK 03 AUDIO TITLE "Carrie" PERFORMER "Charlie Clouser" INDEX 01 00:00:00FILE "04 - Rib Caged.wav" WAVE TRACK 04 AUDIO TITLE "Rib Caged" PERFORMER "Charlie Clouser" INDEX 01 00:00:00FILE "05 - Divorced.wav" WAVE TRACK 05 AUDIO TITLE "Divorced" PERFORMER "Charlie Clouser" INDEX 01 00:00:00FILE "06 - Amanda.wav" WAVE TRACK 06 AUDIO TITLE "Amanda" PERFORMER "Charlie Clouser" INDEX 01 00:00:00FILE "07 - Hello Lynn.wav" WAVE TRACK 07 AUDIO TITLE "Hello Lynn" PERFORMER "Charlie Clouser" INDEX 01 00:00:00FILE "08 - Daughter.wav" WAVE TRACK 08 AUDIO TITLE "Daughter" PERFORMER "Charlie Clouser" INDEX 01 00:00:00FILE "09 - Tin Box.wav" WAVE TRACK 09 AUDIO TITLE "Tin Box" PERFORMER "Charlie Clouser" INDEX 01 00:00:00FILE "10 - Freezer.wav" WAVE TRACK 10 AUDIO TITLE "Freezer" PERFORMER "Charlie Clouser" INDEX 01 00:00:00FILE "11 - Surprised.wav" WAVE TRACK 11 AUDIO TITLE "Surprised" PERFORMER "Charlie Clouser" INDEX 01 00:00:00FILE "12 - Some Things.wav" WAVE TRACK 12 AUDIO TITLE "Some Things" PERFORMER "Charlie Clouser" INDEX 01 00:00:00FILE "13 - Doll Hall.wav" WAVE TRACK 13 AUDIO TITLE "Doll Hall" PERFORMER "Charlie Clouser" INDEX 01 00:00:00FILE "14 - Pig Juicer.wav" WAVE TRACK 14 AUDIO TITLE "Pig Juicer" PERFORMER "Charlie Clouser" INDEX 01 00:00:00FILE "15 - Prep.wav" WAVE TRACK 15 AUDIO TITLE "Prep" PERFORMER "Charlie Clouser" INDEX 01 00:00:00FILE "16 - Surgery.wav" WAVE TRACK 16 AUDIO TITLE "Surgery" PERFORMER "Charlie Clouser" INDEX 01 00:00:00FILE "17 - Baptism.wav" WAVE TRACK 17 AUDIO TITLE "Baptism" PERFORMER "Charlie Clouser" INDEX 01 00:00:00FILE "18 - Shithole.wav" WAVE TRACK 18 AUDIO TITLE "Shithole" PERFORMER "Charlie Clouser" INDEX 01 00:00:00FILE "19 - The Ring.wav" WAVE TRACK 19 AUDIO TITLE "The Ring" PERFORMER "Charlie Clouser" INDEX 01 00:00:00FILE "20 - Hello Tim.wav" WAVE TRACK 20 AUDIO TITLE "Hello Tim" PERFORMER "Charlie Clouser" INDEX 01 00:00:00FILE "21 - The Rack.wav" WAVE TRACK 21 AUDIO TITLE "The Rack" PERFORMER "Charlie Clouser" INDEX 01 00:00:00FILE "22 - Lynn Talks.wav" WAVE TRACK 22 AUDIO TITLE "Lynn Talks" PERFORMER "Charlie Clouser" INDEX 01 00:00:00FILE "23 - Rules.wav" WAVE TRACK 23 AUDIO TITLE "Rules" PERFORMER "Charlie Clouser" INDEX 01 00:00:00FILE "24 - Fight Eric.wav" WAVE TRACK 24 AUDIO TITLE "Fight Eric" PERFORMER "Charlie Clouser" INDEX 01 00:00:00FILE "25 - Your Test.wav" WAVE TRACK 25 AUDIO TITLE "Your Test" PERFORMER "Charlie Clouser" INDEX 01 00:00:00FILE "26 - Fix Me.wav" WAVE TRACK 26 AUDIO TITLE "Fix Me" PERFORMER "Charlie Clouser" INDEX 01 00:00:00FILE "27 - Final Test.wav" WAVE TRACK 27 AUDIO TITLE "Final Test" PERFORMER "Charlie Clouser" INDEX 01 00:00:00
01. Nitzer Ebb - Payroll (Johna Mix) (02:57)
02. Saosin - Collapse (03:17)
03. Drowning Pool - Shame (03:11)
04. Sixx A.M. - Tomorrow (04:06)
05. The Red Jumpsuit Apparatus - Misery Loves It's Company (03:17)
06. Avenged Seven Fold - Eternal Rest (05:14)
07. Ministry - Life Is Good (04:17)
08. Everytime I Die - We'rewolf (03:26)
09. Soulidium - Trapped (03:37)
10. Submersed - Better Think Again (04:18)
11. From Autumn to Ashes - On The Offensive (03:44)
12. Skinny Puppy - Spasmolytic (Deftones remix (Habitual Mix)) (04:33)
13. Dope Stars Inc. - Beatcrusher (03:35)
14. Emilie Autumn - Dead is the New Alive (Manipulator Mix) (05:09)
15. Oxygen - Do You Want To Play A Game (03:29)
16. The Human Abstract - Crossing the Rubicon (05:06)
17. The Red Chord - Dread Prevailed (03:18)
18. Fueled By Bire - Thrash is Back (05:16)
19. Charlie Clouser - Just Begun (04:20)
 
Exact Audio Copy V0.99 prebeta 5 from 4. May 2009

EAC extraction logfile from 5. August 2010, 23:09

Various / Saw IV

Used drive : ASUS DRW-24B1ST Adapter: 0 ID: 1

Read mode : SecureUtilize accurate stream : YesDefeat audio cache : YesMake use of C2 pointers : No

Read offset correction : 6Overread into Lead-In and Lead-Out : NoFill up missing offset samples with silence : YesDelete leading and trailing silent blocks : NoNull samples used in CRC calculations : YesUsed interface : Native Win32 interface for Win NT & 2000Gap handling : Appended to previous track

Used output format : User Defined EncoderSelected bitrate : 1024 kBit/sQuality : HighAdd ID3 tag : NoCommand line compressor : C:\Program Files (x86)\Exact Audio Copy\FLAC\FLAC.EXEAdditional command line options : -6 -V -T "ARTIST=%a" -T "TITLE=%t" -T "ALBUM=%g" -T "DATE=%y" -T "TRACKNUMBER=%n" -T "GENRE=%m" -T "COMMENT=%e" %s -o %d

TOC of the extracted CD

Track | Start | Length | Start sector | End sector --------------------------------------------------------- 1 | 0:00.00 | 2:57.35 | 0 | 13309 2 | 2:57.35 | 3:17.15 | 13310 | 28099 3 | 6:14.50 | 3:11.30 | 28100 | 42454 4 | 9:26.05 | 4:06.35 | 42455 | 60939 5 | 13:32.40 | 3:16.56 | 60940 | 75695 6 | 16:49.21 | 5:13.49 | 75696 | 99219 7 | 22:02.70 | 4:17.26 | 99220 | 118520 8 | 26:20.21 | 3:26.20 | 118521 | 133990 9 | 29:46.41 | 3:37.31 | 133991 | 150296 10 | 33:23.72 | 4:18.06 | 150297 | 169652 11 | 37:42.03 | 3:44.33 | 169653 | 186485 12 | 41:26.36 | 4:32.43 | 186486 | 206928 13 | 45:59.04 | 3:34.59 | 206929 | 223037 14 | 49:33.63 | 5:09.26 | 223038 | 246238 15 | 54:43.14 | 3:28.62 | 246239 | 261900 16 | 58:12.01 | 5:06.24 | 261901 | 284874 17 | 63:18.25 | 3:17.61 | 284875 | 299710 18 | 66:36.11 | 5:16.03 | 299711 | 323413 19 | 71:52.14 | 4:20.09 | 323414 | 342922

Track 1

Filename C:\Users\Matt\Music\test\01. Nitzer Ebb - Payroll (Johna Mix).wav

Pre-gap length 0:00:02.00

Peak level 98.8 % Track quality 100.0 % Test CRC C634175D Copy CRC C634175D Accurately ripped (confidence 1) [B997D467] Copy OK

Track 2

Filename C:\Users\Matt\Music\test\02. Saosin - Collapse.wav

Pre-gap length 0:00:00.98

Peak level 98.8 % Track quality 100.0 % Test CRC 8E4446F7 Copy CRC 8E4446F7 Accurately ripped (confidence 1) [879E1DD4] Copy OK

Track 3

Filename C:\Users\Matt\Music\test\03. Drowning Pool - Shame.wav

Pre-gap length 0:00:00.76

Peak level 100.0 % Track quality 100.0 % Test CRC F577AD56 Copy CRC F577AD56 Accurately ripped (confidence 1) [5179996C] Copy OK

Track 4

Filename C:\Users\Matt\Music\test\04. Sixx A.M. - Tomorrow.wav

Pre-gap length 0:00:00.69

Peak level 100.0 % Track quality 100.0 % Test CRC BC41956D Copy CRC BC41956D Accurately ripped (confidence 1) [AA89D0C2] Copy OK

Track 5

Filename C:\Users\Matt\Music\test\05. The Red Jumpsuit Apparatus - Misery Loves It's Company.wav

Pre-gap length 0:00:01.09

Peak level 98.8 % Track quality 100.0 % Test CRC 68885861 Copy CRC 68885861 Accurately ripped (confidence 1) [9F75F88D] Copy OK

Track 6

Filename C:\Users\Matt\Music\test\06. Avenged Seven Fold - Eternal Rest.wav

Pre-gap length 0:00:01.62

Peak level 100.0 % Track quality 100.0 % Test CRC 79438E85 Copy CRC 79438E85 Accurately ripped (confidence 1) [1BF578FC] Copy OK

Track 7

Filename C:\Users\Matt\Music\test\07. Ministry - Life Is Good.wav

Pre-gap length 0:00:01.24

Peak level 98.8 % Track quality 99.9 % Test CRC 0B4F1772 Copy CRC 0B4F1772 Accurately ripped (confidence 1) [C51843AD] Copy OK

Track 8

Filename C:\Users\Matt\Music\test\08. Everytime I Die - We'rewolf.wav

Pre-gap length 0:00:01.96

Peak level 98.8 % Track quality 100.0 % Test CRC 145E2320 Copy CRC 145E2320 Accurately ripped (confidence 1) [5AA54704] Copy OK

Track 9

Filename C:\Users\Matt\Music\test\09. Soulidium - Trapped.wav

Pre-gap length 0:00:01.58

Peak level 98.8 % Track quality 100.0 % Test CRC D2DDBC34 Copy CRC D2DDBC34 Accurately ripped (confidence 1) [96B4F4CA] Copy OK

Track 10

Filename C:\Users\Matt\Music\test\10. Submersed - Better Think Again.wav

Peak level 100.0 % Track quality 100.0 % Test CRC A036D0C8 Copy CRC A036D0C8 Accurately ripped (confidence 1) [2E345433] Copy OK

Track 11

Filename C:\Users\Matt\Music\test\11. From Autumn to Ashes - On The Offensive.wav

Pre-gap length 0:00:02.16

Peak level 98.8 % Track quality 99.9 % Test CRC 274B0121 Copy CRC 274B0121 Accurately ripped (confidence 1) [3C3B1423] Copy OK

Track 12

Filename C:\Users\Matt\Music\test\12. Skinny Puppy - Spasmolytic (Deftones remix (Habitual Mix)).wav

Pre-gap length 0:00:01.60

Peak level 98.8 % Track quality 100.0 % Test CRC F57D6B03 Copy CRC F57D6B03 Accurately ripped (confidence 1) [8FE16F0A] Copy OK

Track 13

Filename C:\Users\Matt\Music\test\13. Dope Stars Inc. - Beatcrusher.wav

Pre-gap length 0:00:01.53

Peak level 84.1 % Track quality 100.0 % Test CRC DC03F2A8 Copy CRC DC03F2A8 Accurately ripped (confidence 1) [8BA6F4B7] Copy OK

Track 14

Filename C:\Users\Matt\Music\test\14. Emilie Autumn - Dead is the New Alive (Manipulator Mix).wav

Pre-gap length 0:00:01.65

Peak level 93.3 % Track quality 100.0 % Test CRC 60E5582B Copy CRC 60E5582B Accurately ripped (confidence 1) [0F0E244D] Copy OK

Track 15

Filename C:\Users\Matt\Music\test\15. Oxygen - Do You Want To Play A Game.wav

Pre-gap length 0:00:01.61

Peak level 98.8 % Track quality 100.0 % Test CRC 8168BA73 Copy CRC 8168BA73 Accurately ripped (confidence 1) [D13FD989] Copy OK

Track 16

Filename C:\Users\Matt\Music\test\16. The Human Abstract - Crossing the Rubicon.wav

Pre-gap length 0:00:01.10

Peak level 100.0 % Track quality 100.0 % Test CRC FB18E3C6 Copy CRC FB18E3C6 Accurately ripped (confidence 1) [1400EBDC] Copy OK

Track 17

Filename C:\Users\Matt\Music\test\17. The Red Chord - Dread Prevailed.wav

Pre-gap length 0:00:01.09

Peak level 98.8 % Track quality 100.0 % Test CRC 71C78101 Copy CRC 71C78101 Accurately ripped (confidence 1) [6E30125A] Copy OK

Track 18

Filename C:\Users\Matt\Music\test\18. Fueled By Bire - Thrash is Back.wav

Pre-gap length 0:00:01.76

Peak level 98.8 % Track quality 100.0 % Test CRC 761C48BD Copy CRC 761C48BD Accurately ripped (confidence 1) [1176E7B5] Copy OK

Track 19

Filename C:\Users\Matt\Music\test\19. Charlie Clouser - Just Begun.wav

Pre-gap length 0:00:01.73

Peak level 98.8 % Track quality 100.0 % Test CRC 7F212E75 Copy CRC 7F212E75 Accurately ripped (confidence 1) [3E19578D] Copy OK

All tracks accurately ripped

No errors occurred

End of status report
 
REM GENRE SoundtrackREM DATE 2007REM DISCID 2511DC13REM COMMENT "ExactAudioCopy v0.99pb5"PERFORMER "Various Artists"TITLE "Saw IV"FILE "01 - Nitzer Ebb - Payroll (Johna Mix).wav" WAVE TRACK 01 AUDIO TITLE "Payroll (Johna Mix)" PERFORMER "Nitzer Ebb" INDEX 01 00:00:00 TRACK 02 AUDIO TITLE "Collapse" PERFORMER "Saosin" INDEX 00 02:56:36FILE "02 - Saosin - Collapse.wav" WAVE INDEX 01 00:00:00 TRACK 03 AUDIO TITLE "Shame" PERFORMER "Drowning Pool" INDEX 00 03:16:33FILE "03 - Drowning Pool - Shame.wav" WAVE INDEX 01 00:00:00 TRACK 04 AUDIO TITLE "Tomorrow" PERFORMER "Sixx A.M." INDEX 00 03:10:53FILE "04 - Sixx A.M. - Tomorrow.wav" WAVE INDEX 01 00:00:00 TRACK 05 AUDIO TITLE "Misery Loves It's Company" PERFORMER "The Red Jumpsuit Apparatus" INDEX 00 04:05:28FILE "05 - The Red Jumpsuit Apparatus - Misery Loves It's Company.wav" WAVE INDEX 01 00:00:00 TRACK 06 AUDIO TITLE "Eternal Rest" PERFORMER "Avenged Seven Fold" INDEX 00 03:15:09FILE "06 - Avenged Seven Fold - Eternal Rest.wav" WAVE INDEX 01 00:00:00 TRACK 07 AUDIO TITLE "Life Is Good" PERFORMER Ministry INDEX 00 05:12:31FILE "07 - Ministry - Life Is Good.wav" WAVE INDEX 01 00:00:00 TRACK 08 AUDIO TITLE We'rewolf PERFORMER "Everytime I Die" INDEX 00 04:15:29FILE "08 - Everytime I Die - We'rewolf.wav" WAVE INDEX 01 00:00:00 TRACK 09 AUDIO TITLE "Trapped" PERFORMER "Soulidium" INDEX 00 03:24:51FILE "09 - Soulidium - Trapped.wav" WAVE INDEX 01 00:00:00FILE "10 - Submersed - Better Think Again.wav" WAVE TRACK 10 AUDIO TITLE "Better Think Again" PERFORMER "Submersed" INDEX 01 00:00:00 TRACK 11 AUDIO TITLE "On The Offensive" PERFORMER "From Autumn to Ashes" INDEX 00 04:15:69FILE "11 - From Autumn to Ashes - On The Offensive.wav" WAVE INDEX 01 00:00:00 TRACK 12 AUDIO TITLE "Spasmolytic (Deftones remix (Habitual Mix))" PERFORMER "Skinny Puppy" INDEX 00 03:42:63FILE "12 - Skinny Puppy - Spasmolytic (Deftones remix (Habitual Mix)).wav" WAVE INDEX 01 00:00:00 TRACK 13 AUDIO TITLE "Beatcrusher" PERFORMER "Dope Stars Inc." INDEX 00 04:31:03FILE "13 - Dope Stars Inc. - Beatcrusher.wav" WAVE INDEX 01 00:00:00 TRACK 14 AUDIO TITLE "Dead is the New Alive (Manipulator Mix)" PERFORMER "Emilie Autumn" INDEX 00 03:33:10FILE "14 - Emilie Autumn - Dead is the New Alive (Manipulator Mix).wav" WAVE INDEX 01 00:00:00 TRACK 15 AUDIO TITLE "Do You Want To Play A Game" PERFORMER "Oxygen" INDEX 00 05:07:55FILE "15 - Oxygen - Do You Want To Play A Game.wav" WAVE INDEX 01 00:00:00 TRACK 16 AUDIO TITLE "Crossing the Rubicon" PERFORMER "The Human Abstract" INDEX 00 03:27:54FILE "16 - The Human Abstract - Crossing the Rubicon.wav" WAVE INDEX 01 00:00:00 TRACK 17 AUDIO TITLE "Dread Prevailed" PERFORMER "The Red Chord" INDEX 00 05:05:17FILE "17 - The Red Chord - Dread Prevailed.wav" WAVE INDEX 01 00:00:00 TRACK 18 AUDIO TITLE "Thrash is Back" PERFORMER "Fueled By Bire" INDEX 00 03:16:04FILE "18 - Fueled By Bire - Thrash is Back.wav" WAVE INDEX 01 00:00:00 TRACK 19 AUDIO TITLE "Just Begun" PERFORMER "Charlie Clouser" INDEX 00 05:14:23FILE "19 - Charlie Clouser - Just Begun.wav" WAVE INDEX 01 00:00:00
01. Charlie Clouser - Trap Attacks (04:13)
02. Testament - True Believer (03:37)
03. Ministry - Death and Destruction (Remix) (05:09)
04. Filter - What's Next (The Blood & Sand Mix) (03:27)
05. The Almighty - Thanks Again, Again (04:11)
06. Prong - The Banishment (06:01)
07. Die Krupps - The Dawning Of Doom (03:46)
08. Clutch - Power Player (03:06)
09. Skinny Puppy - Ugli (06:32)
10. William Control - Strangers (04:04)
11. Emilie Autumn - Unlaced (03:26)
12. Fixmer - McCarthy / Blood and Music (04:12)
13. The Revolting Cocks - Wizard Of Sextown (07:20)
14. Funker Vogt - Date Of Expiration (Expired) (04:33)
15. Charlie Clouser - What It Takes (04:47)
 
Exact Audio Copy V0.99 prebeta 5 from 4. May 2009

EAC extraction logfile from 20. February 2010, 2:59

Various Artists / Saw V Soundtrack

Used drive : TSSTcorpCDDVDW SE-S224Q Adapter: 3 ID: 0

Read mode : SecureUtilize accurate stream : YesDefeat audio cache : YesMake use of C2 pointers : No

Read offset correction : 6Overread into Lead-In and Lead-Out : NoFill up missing offset samples with silence : YesDelete leading and trailing silent blocks : NoNull samples used in CRC calculations : YesUsed interface : Native Win32 interface for Win NT & 2000Gap handling : Appended to previous track

Used output format : User Defined EncoderSelected bitrate : 128 kBit/sQuality : HighAdd ID3 tag : NoCommand line compressor : D:\Programme\Exact Audio Copy\Flac\flac.exeAdditional command line options : -8 -V -T "artist=%a" -T "title=%t" -T "album=%g" -T "date=%y" -T "tracknumber=%n" -T "genre=%m" %s

TOC of the extracted CD

Track | Start | Length | Start sector | End sector --------------------------------------------------------- 1 | 0:00.00 | 4:13.14 | 0 | 18988 2 | 4:13.14 | 3:37.12 | 18989 | 35275 3 | 7:50.26 | 5:09.05 | 35276 | 58455 4 | 12:59.31 | 3:27.18 | 58456 | 73998 5 | 16:26.49 | 4:11.03 | 73999 | 92826 6 | 20:37.52 | 6:00.71 | 92827 | 119897 7 | 26:38.48 | 3:45.50 | 119898 | 136822 8 | 30:24.23 | 3:05.54 | 136823 | 150751 9 | 33:30.02 | 6:32.35 | 150752 | 180186 10 | 40:02.37 | 4:03.69 | 180187 | 198480 11 | 44:06.31 | 3:26.33 | 198481 | 213963 12 | 47:32.64 | 4:12.03 | 213964 | 232866 13 | 51:44.67 | 7:19.69 | 232867 | 265860 14 | 59:04.61 | 4:32.61 | 265861 | 286321 15 | 63:37.47 | 4:47.05 | 286322 | 307851

Track 1

Filename D:\Rips\01 - Trap Attacks.wav

Pre-gap length 0:00:02.00

Peak level 98.8 % Track quality 100.0 % Test CRC A7903023 Copy CRC A7903023 Track not present in AccurateRip database Copy OK

Track 2

Filename D:\Rips\02 - True Believer.wav

Peak level 98.8 % Track quality 99.9 % Test CRC 7C350FB4 Copy CRC 7C350FB4 Track not present in AccurateRip database Copy OK

Track 3

Filename D:\Rips\03 - Death and destruction (Remix).wav

Peak level 98.8 % Track quality 100.0 % Test CRC 2782014E Copy CRC 2782014E Track not present in AccurateRip database Copy OK

Track 4

Filename D:\Rips\04 - What's next (The blood & Sand mix).wav

Peak level 98.8 % Track quality 100.0 % Test CRC 611F98AB Copy CRC 611F98AB Track not present in AccurateRip database Copy OK

Track 5

Filename D:\Rips\05 - Thanks again, again.wav

Peak level 98.8 % Track quality 99.9 % Test CRC 63963129 Copy CRC 63963129 Track not present in AccurateRip database Copy OK

Track 6

Filename D:\Rips\06 - The banishment.wav

Peak level 98.8 % Track quality 99.9 % Test CRC C92E2ABE Copy CRC C92E2ABE Track not present in AccurateRip database Copy OK

Track 7

Filename D:\Rips\07 - The dawning of doom.wav

Peak level 84.9 % Track quality 100.0 % Test CRC 35C5072D Copy CRC 35C5072D Track not present in AccurateRip database Copy OK

Track 8

Filename D:\Rips\08 - Power Player.wav

Peak level 98.8 % Track quality 100.0 % Test CRC 7AF4BF2E Copy CRC 7AF4BF2E Track not present in AccurateRip database Copy OK

Track 9

Filename D:\Rips\09 - Ugli.wav

Peak level 98.8 % Track quality 99.9 % Test CRC 2A72C4BC Copy CRC 2A72C4BC Track not present in AccurateRip database Copy OK

Track 10

Filename D:\Rips\10 - Strangers.wav

Peak level 98.8 % Track quality 100.0 % Test CRC F5F86D49 Copy CRC F5F86D49 Track not present in AccurateRip database Copy OK

Track 11

Filename D:\Rips\11 - Unlaced.wav

Peak level 98.7 % Track quality 100.0 % Test CRC FE03EA4C Copy CRC FE03EA4C Track not present in AccurateRip database Copy OK

Track 12

Filename D:\Rips\12 - McCarthy , Blood and music.wav

Peak level 98.8 % Track quality 99.9 % Test CRC A272CE7E Copy CRC A272CE7E Track not present in AccurateRip database Copy OK

Track 13

Filename D:\Rips\13 - Wizard of sextown.wav

Peak level 98.8 % Track quality 100.0 % Test CRC 01BE11DC Copy CRC 01BE11DC Track not present in AccurateRip database Copy OK

Track 14

Filename D:\Rips\14 - Date of expiration (Expired).wav

Peak level 98.8 % Track quality 100.0 % Test CRC E86979E1 Copy CRC E86979E1 Track not present in AccurateRip database Copy OK

Track 15

Filename D:\Rips\15 - What it takes.wav

Peak level 98.8 % Track quality 100.0 % Test CRC 9600C92C Copy CRC 9600C92C Track not present in AccurateRip database Copy OK

None of the tracks are present in the AccurateRip database

No errors occurred

End of status report
 
REM GENRE SoundtrackREM DATE 2008REM DISCID D210080FREM COMMENT "ExactAudioCopy v0.99pb5"PERFORMER "Various Artists"TITLE "Saw V"FILE "01 - Charlie Clouser - Trap Attacks.wav" WAVE TRACK 01 AUDIO TITLE "Trap Attacks" PERFORMER "Charlie Clouser" INDEX 01 00:00:00FILE "02 - Testament - True Believer.wav" WAVE TRACK 02 AUDIO TITLE "True Believer" PERFORMER "Testament" INDEX 01 00:00:00FILE "03 - Ministry - Death and Destruction (Remix).wav" WAVE TRACK 03 AUDIO TITLE "Death and Destruction (Remix)" PERFORMER "Ministry" INDEX 01 00:00:00FILE "04 - Filter - What's Next (The Blood & Sand Mix).wav" WAVE TRACK 04 AUDIO TITLE "What's Next (The Blood & Sand Mix)" PERFORMER "Filter" INDEX 01 00:00:00FILE "05 - The Almighty - Thanks Again, Again.wav" WAVE TRACK 05 AUDIO TITLE "Thanks Again, Again" PERFORMER "The Almighty" INDEX 01 00:00:00FILE "06 - Prong - The Banishment.wav" WAVE TRACK 06 AUDIO TITLE "The Banishment" PERFORMER "Prong" INDEX 01 00:00:00FILE "07 - Die Krupps - The Dawning Of Doom.wav" WAVE TRACK 07 AUDIO TITLE "The Dawning Of Doom" PERFORMER "Die Krupps" INDEX 01 00:00:00FILE "08 - Clutch - Power Player.wav" WAVE TRACK 08 AUDIO TITLE "Power Player" PERFORMER "Clutch" INDEX 01 00:00:00FILE "09 - Skinny Puppy - Ugli.wav" WAVE TRACK 09 AUDIO TITLE Ugli PERFORMER "Skinny Puppy" INDEX 01 00:00:00FILE "10 - William Control - Strangers.wav" WAVE TRACK 10 AUDIO TITLE "Strangers" PERFORMER "William Control" INDEX 01 00:00:00FILE "11 - Emilie Autumn - Unlaced.wav" WAVE TRACK 11 AUDIO TITLE "Unlaced" PERFORMER "Emilie Autumn" INDEX 01 00:00:00FILE "12 - Fixmer - McCarthy, Blood and Music.wav" WAVE TRACK 12 AUDIO TITLE "McCarthy / Blood and Music" PERFORMER "Fixmer" INDEX 01 00:00:00FILE "13 - The Revolting Cocks - Wizard Of Sextown.wav" WAVE TRACK 13 AUDIO TITLE "Wizard Of Sextown" PERFORMER "The Revolting Cocks" INDEX 01 00:00:00FILE "14 - Funker Vogt - Date Of Expiration (Expired).wav" WAVE TRACK 14 AUDIO TITLE "Date Of Expiration (Expired)" PERFORMER "Funker Vogt" INDEX 01 00:00:00FILE "15 - Charlie Clouser - What It Takes.wav" WAVE TRACK 15 AUDIO TITLE "What It Takes" PERFORMER "Charlie Clouser" INDEX 01 00:00:00
01. Hatebreed - In Ashes They Shall Reap (03:21)
02. Lacuna Coil - The Last Goodbye (04:15)
03. It Dies Today - Reckless Abandon (03:56)
04. Mushroomhead - Your Soul Is Mine (04:50)
05. Chimaira - Warpath (04:18)
06. Danko Jones - Code Of The Road (02:58)
07. Suicide Silence - Genocide (Saw VI Remix) (03:00)
08. Memphis May Fire - Ghost In The Mirror (03:54)
09. Outbreak - The Countdown Begins (01:48)
10. Shadows Fall - Still I Rise (Saw VI Remix) (03:28)
11. Type O Negative - Dead Again (04:17)
12. Converge - Dark Horse (02:55)
13. Kittie - Cut Throat (02:57)
14. Nitzer Ebb - Never Known (04:05)
15. Every Time I Die - Roman Holiday (02:51)
16. My My Misfire - The Sinatra (03:20)
17. The Flood - Lethal Injection (03:49)
18. James Brothers - More Than A Sin (03:59)
 
Exact Audio Copy V0.99 prebeta 5 from 4. May 2009

EAC extraction logfile from 6. October 2010, 0:33

Various / Saw VI Soundtrack

Used drive : ATAPI DVD A DH16AASH Adapter: 0 ID: 1

Read mode : SecureUtilize accurate stream : YesDefeat audio cache : YesMake use of C2 pointers : No

Read offset correction : 6Overread into Lead-In and Lead-Out : NoFill up missing offset samples with silence : YesDelete leading and trailing silent blocks : NoNull samples used in CRC calculations : YesUsed interface : Native Win32 interface for Win NT & 2000Gap handling : Appended to previous track

Used output format : User Defined EncoderSelected bitrate : 896 kBit/sQuality : HighAdd ID3 tag : NoCommand line compressor : C:\Program Files (x86)\Exact Audio Copy\Flac\flac.exeAdditional command line options : -V -8 -T "artist=%a" -T "title=%t" -T "album=%g" -T "date=%y" -T "tracknumber=%n" -T "genre=%m" %s

TOC of the extracted CD

Track | Start | Length | Start sector | End sector --------------------------------------------------------- 1 | 0:00.00 | 3:20.39 | 0 | 15038 2 | 3:20.39 | 4:15.12 | 15039 | 34175 3 | 7:35.51 | 3:56.06 | 34176 | 51881 4 | 11:31.57 | 4:49.72 | 51882 | 73628 5 | 16:21.54 | 4:18.25 | 73629 | 93003 6 | 20:40.04 | 2:58.14 | 93004 | 106367 7 | 23:38.18 | 3:00.24 | 106368 | 119891 8 | 26:38.42 | 3:53.55 | 119892 | 137421 9 | 30:32.22 | 1:48.07 | 137422 | 145528 10 | 32:20.29 | 3:27.47 | 145529 | 161100 11 | 35:48.01 | 4:16.55 | 161101 | 180355 12 | 40:04.56 | 2:55.14 | 180356 | 193494 13 | 42:59.70 | 2:56.52 | 193495 | 206746 14 | 45:56.47 | 4:04.48 | 206747 | 225094 15 | 50:01.20 | 2:51.21 | 225095 | 237940 16 | 52:52.41 | 3:20.31 | 237941 | 252971 17 | 56:12.72 | 3:48.64 | 252972 | 270135 18 | 60:01.61 | 3:59.28 | 270136 | 288088

Track 1

Filename C:\EAC\VA - Saw VI Soundtrack (2009)\01 - In Ashes They Shall Reap (Hatebreed).wav

Pre-gap length 0:00:02.00

Peak level 94.4 % Track quality 100.0 % Test CRC 0B013C91 Copy CRC 0B013C91 Accurately ripped (confidence 1) [05877DD3] Copy OK

Track 2

Filename C:\EAC\VA - Saw VI Soundtrack (2009)\02 - The Last Goodbye (Lacuna Coil).wav

Peak level 99.9 % Track quality 100.0 % Test CRC F3E5707C Copy CRC F3E5707C Accurately ripped (confidence 1) [7C5CCC3D] Copy OK

Track 3

Filename C:\EAC\VA - Saw VI Soundtrack (2009)\03 - Reckless Abandon (It Dies Today).wav

Peak level 89.1 % Track quality 99.9 % Test CRC E47BEF14 Copy CRC E47BEF14 Accurately ripped (confidence 1) [CCF0A090] Copy OK

Track 4

Filename C:\EAC\VA - Saw VI Soundtrack (2009)\04 - Your Soul Is Mine (Mushroomhead).wav

Pre-gap length 0:00:01.50

Peak level 100.0 % Track quality 100.0 % Test CRC 390885AC Copy CRC 390885AC Accurately ripped (confidence 1) [C6E0E827] Copy OK

Track 5

Filename C:\EAC\VA - Saw VI Soundtrack (2009)\05 - Warpath (Chimaira).wav

Peak level 100.0 % Track quality 99.9 % Test CRC F927FA69 Copy CRC F927FA69 Accurately ripped (confidence 1) [F24B1E85] Copy OK

Track 6

Filename C:\EAC\VA - Saw VI Soundtrack (2009)\06 - Code Of The Road (Danko Jones).wav

Peak level 84.1 % Track quality 100.0 % Test CRC 0A9B2F99 Copy CRC 0A9B2F99 Accurately ripped (confidence 1) [C215159D] Copy OK

Track 7

Filename C:\EAC\VA - Saw VI Soundtrack (2009)\07 - Genocide , Saw VI Remix (Suicide Silence).wav

Peak level 79.4 % Track quality 99.9 % Test CRC DD199690 Copy CRC DD199690 Accurately ripped (confidence 1) [3963EE9F] Copy OK

Track 8

Filename C:\EAC\VA - Saw VI Soundtrack (2009)\08 - Ghost In The Mirror (Memphis May Fire).wav

Peak level 91.7 % Track quality 100.0 % Test CRC C801116C Copy CRC C801116C Cannot be verified as accurate (confidence 1) [6D95A3EB], AccurateRip returned [C3372489] Copy OK

Track 9

Filename C:\EAC\VA - Saw VI Soundtrack (2009)\09 - The Countdown Begins (Outbreak).wav

Peak level 79.2 % Track quality 100.0 % Test CRC 14795095 Copy CRC 14795095 Accurately ripped (confidence 1) [D56A5063] Copy OK

Track 10

Filename C:\EAC\VA - Saw VI Soundtrack (2009)\10 - Still I Rise , Saw VI Remix (Shadows Fall).wav

Peak level 99.1 % Track quality 100.0 % Test CRC 95BEFC53 Copy CRC 95BEFC53 Accurately ripped (confidence 1) [8C9088FE] Copy OK

Track 11

Filename C:\EAC\VA - Saw VI Soundtrack (2009)\11 - Dead Again (Type O Negative).wav

Pre-gap length 0:00:02.30

Peak level 100.0 % Track quality 100.0 % Test CRC 9116A272 Copy CRC 9116A272 Accurately ripped (confidence 1) [C60ACB19] Copy OK

Track 12

Filename C:\EAC\VA - Saw VI Soundtrack (2009)\12 - Dark Horse (Converge).wav

Pre-gap length 0:00:01.94

Peak level 99.1 % Track quality 100.0 % Test CRC 88699487 Copy CRC 88699487 Accurately ripped (confidence 1) [242C1C92] Copy OK

Track 13

Filename C:\EAC\VA - Saw VI Soundtrack (2009)\13 - Cut Throat (Kittie).wav

Peak level 100.0 % Track quality 100.0 % Test CRC 8BE09BFF Copy CRC 8BE09BFF Accurately ripped (confidence 1) [3E8B32B2] Copy OK

Track 14

Filename C:\EAC\VA - Saw VI Soundtrack (2009)\14 - Never Known (Nitzer Ebb).wav

Peak level 98.3 % Track quality 100.0 % Test CRC E3AF7FB3 Copy CRC E3AF7FB3 Accurately ripped (confidence 1) [910ED6CC] Copy OK

Track 15

Filename C:\EAC\VA - Saw VI Soundtrack (2009)\15 - Roman Holiday (Every Time I Die).wav

Peak level 100.0 % Track quality 100.0 % Test CRC 554D768E Copy CRC 554D768E Accurately ripped (confidence 1) [0FC73E57] Copy OK

Track 16

Filename C:\EAC\VA - Saw VI Soundtrack (2009)\16 - The Sinatra (My My Misfire).wav

Pre-gap length 0:00:01.64

Peak level 86.5 % Track quality 100.0 % Test CRC 217CE595 Copy CRC 217CE595 Accurately ripped (confidence 1) [37091BD9] Copy OK

Track 17

Filename C:\EAC\VA - Saw VI Soundtrack (2009)\17 - Lethal Injection (The Flood).wav

Peak level 100.0 % Track quality 100.0 % Test CRC C69B6985 Copy CRC C69B6985 Accurately ripped (confidence 1) [58126511] Copy OK

Track 18

Filename C:\EAC\VA - Saw VI Soundtrack (2009)\18 - More Than A Sin (James Brothers).wav

Pre-gap length 0:00:01.20

Peak level 100.0 % Track quality 100.0 % Test CRC 0D423F86 Copy CRC 0D423F86 Accurately ripped (confidence 1) [8C8C91F9] Copy OK

17 track(s) accurately ripped 1 track(s) could not be verified as accurate

Some tracks could not be verified as accurate

No errors occurred

End of status report
 
REM GENRE SoundtrackREM DATE 2009REM DISCID DF0F0112REM COMMENT "ExactAudioCopy v0.99pb5"PERFORMER "Various Artists"TITLE "Saw VI"FILE "01 - Hatebreed - In Ashes They Shall Reap.wav" WAVE TRACK 01 AUDIO TITLE "In Ashes They Shall Reap" PERFORMER Hatebreed INDEX 01 00:00:00FILE "02 - Lacuna Coil - The Last Goodbye.wav" WAVE TRACK 02 AUDIO TITLE "The Last Goodbye" PERFORMER "Lacuna Coil" INDEX 01 00:00:00FILE "03 - It Dies Today - Reckless Abandon.wav" WAVE TRACK 03 AUDIO TITLE "Reckless Abandon" PERFORMER "It Dies Today" INDEX 01 00:00:00 TRACK 04 AUDIO TITLE "Your Soul Is Mine" PERFORMER Mushroomhead INDEX 00 03:54:43FILE "04 - Mushroomhead - Your Soul Is Mine.wav" WAVE INDEX 01 00:00:00FILE "05 - Chimaira - Warpath.wav" WAVE TRACK 05 AUDIO TITLE "Warpath" PERFORMER "Chimaira" INDEX 01 00:00:00FILE "06 - Danko Jones - Code Of The Road.wav" WAVE TRACK 06 AUDIO TITLE "Code Of The Road" PERFORMER "Danko Jones" INDEX 01 00:00:00FILE "07 - Suicide Silence - Genocide (Saw VI Remix).wav" WAVE TRACK 07 AUDIO TITLE "Genocide (Saw VI Remix)" PERFORMER "Suicide Silence" INDEX 01 00:00:00FILE "08 - Memphis May Fire - Ghost In The Mirror.wav" WAVE TRACK 08 AUDIO TITLE "Ghost In The Mirror" PERFORMER "Memphis May Fire" INDEX 01 00:00:00FILE "09 - Outbreak - The Countdown Begins.wav" WAVE TRACK 09 AUDIO TITLE "The Countdown Begins" PERFORMER "Outbreak" INDEX 01 00:00:00FILE "10 - Shadows Fall - Still I Rise (Saw VI Remix).wav" WAVE TRACK 10 AUDIO TITLE "Still I Rise (Saw VI Remix)" PERFORMER "Shadows Fall" INDEX 01 00:00:00 TRACK 11 AUDIO TITLE "Dead Again" PERFORMER "Type O Negative" INDEX 00 03:25:24FILE "11 - Type O Negative - Dead Again.wav" WAVE INDEX 01 00:00:00 TRACK 12 AUDIO TITLE "Dark Horse" PERFORMER "Converge" INDEX 00 04:14:59FILE "12 - Converge - Dark Horse.wav" WAVE INDEX 01 00:00:00FILE "13 - Kittie - Cut Throat.wav" WAVE TRACK 13 AUDIO TITLE "Cut Throat" PERFORMER "Kittie" INDEX 01 00:00:00FILE "14 - Nitzer Ebb - Never Known.wav" WAVE TRACK 14 AUDIO TITLE "Never Known" PERFORMER "Nitzer Ebb" INDEX 01 00:00:00FILE "15 - Every Time I Die - Roman Holiday.wav" WAVE TRACK 15 AUDIO TITLE "Roman Holiday" PERFORMER "Every Time I Die" INDEX 01 00:00:00 TRACK 16 AUDIO TITLE "The Sinatra" PERFORMER "My My Misfire" INDEX 00 02:49:48FILE "16 - My My Misfire - The Sinatra.wav" WAVE INDEX 01 00:00:00FILE "17 - The Flood - Lethal Injection.wav" WAVE TRACK 17 AUDIO TITLE "Lethal Injection" PERFORMER "The Flood" INDEX 01 00:00:00 TRACK 18 AUDIO TITLE "More Than A Sin" PERFORMER "James Brothers" INDEX 00 03:47:49FILE "18 - James Brothers - More Than A Sin.wav" WAVE INDEX 01 00:00:00
01. Saving Abel - Never (03:00)
02. Dead By Sunrise - Condemned (02:32)
03. Hinder - Waking Up The Devil (04:13)
04. Karnivool - Goliath (04:39)
05. Nitzer Ebb - Promises (03:49)
06. Kopek - Love Is Dead (04:03)
07. Saliva - Badass (03:05)
08. My Darkest Days - The World Belongs To Me (03:43)
09. Default - Turn It On (03:16)
10. I-Exist - Fire Fly (04:24)
11. Boom Boom Satellites - What Goes Round Comes Around (04:30)
12. Adelitas Way - Scream (03:34)
13. Krokus - Hoodoo Woman (03:35)
14. Lordi - This Is Heavy Metal (03:01)
15. Wagdug Futuristic Unity - Ram The Crush (03:33)
16. Dir En Grey - Hageshisa To, Kono Mune No Naka De Karamitsuita Shakunetsu No Yami (04:00)
 
X Lossless Decoder version 20110703 (135.1)

XLD extraction logfile from 2011-08-19 15:16:19 -0700

Various Artists / Saw 3D

Used drive : ATAPI eHAU424 A (revision 7L1P)

Ripper mode : CDParanoia III 10.2Disable audio cache : OK for the drive with a cache less than 2750KiBMake use of C2 pointers : NORead offset correction : 6Max retry count : 100Gap status : Analyzed, Appended

TOC of the extracted CD Track | Start | Length | Start sector | End sector --------------------------------------------------------- 1 | 00:00:00 | 02:59:71 | 0 | 13495 2 | 02:59:71 | 02:31:42 | 13496 | 24862 3 | 05:31:38 | 04:13:19 | 24863 | 43856 4 | 09:44:57 | 04:38:73 | 43857 | 64779 5 | 14:23:55 | 03:49:19 | 64780 | 81973 6 | 18:12:74 | 04:02:44 | 81974 | 100167 7 | 22:15:43 | 03:04:61 | 100168 | 114028 8 | 25:20:29 | 03:42:44 | 114029 | 130722 9 | 29:02:73 | 03:15:63 | 130723 | 145410 10 | 32:18:61 | 04:24:15 | 145411 | 165225 11 | 36:43:01 | 04:30:02 | 165226 | 185477 12 | 41:13:03 | 03:33:62 | 185478 | 201514 13 | 44:46:65 | 03:35:02 | 201515 | 217641 14 | 48:21:67 | 03:01:26 | 217642 | 231242 15 | 51:23:18 | 03:32:52 | 231243 | 247194 16 | 54:55:70 | 04:00:36 | 247195 | 265230

AccurateRip Summary Disc not found in AccurateRip DB.

All Tracks Album gain : -9.79 dB Peak : 0.999969 Statistics Read error : 0 Skipped (treated as error) : 0 Edge jitter error (maybe fixed) : 1 Atom jitter error (maybe fixed) : 17 Drift error (maybe fixed) : 0 Dropped bytes error (maybe fixed) : 0 Duplicated bytes error (maybe fixed) : 0

Track 01 Filename : /Volumes/VERBATIM/new/01. Never - Various Artists - Saw 3D.flac Pre-gap length : 00:02:00

Track gain : -9.49 dB Peak : 0.966064 CRC32 hash (test run) : 8A2AC378 CRC32 hash : 8A2AC378 CRC32 hash (skip zero) : 10143D80 AccurateRip signature : B4B2EB14 ->Track not present in AccurateRip database. Statistics Read error : 0 Skipped (treated as error) : 0 Edge jitter error (maybe fixed) : 0 Atom jitter error (maybe fixed) : 0 Drift error (maybe fixed) : 0 Dropped bytes error (maybe fixed) : 0 Duplicated bytes error (maybe fixed) : 0 Inconsistency in error sectors : 0

Track 02 Filename : /Volumes/VERBATIM/new/02. Condemned - Various Artists - Saw 3D.flac Pre-gap length : 00:01:00

Track gain : -10.13 dB Peak : 0.891235 CRC32 hash (test run) : 2A0A5EF8 CRC32 hash : 2A0A5EF8 CRC32 hash (skip zero) : F7C9A77C AccurateRip signature : 2AE9C007 ->Track not present in AccurateRip database. Statistics Read error : 0 Skipped (treated as error) : 0 Edge jitter error (maybe fixed) : 0 Atom jitter error (maybe fixed) : 0 Drift error (maybe fixed) : 0 Dropped bytes error (maybe fixed) : 0 Duplicated bytes error (maybe fixed) : 0 Inconsistency in error sectors : 0

Track 03 Filename : /Volumes/VERBATIM/new/03. Waking Up The Devil - Various Artists - Saw 3D.flac

Track gain : -9.67 dB Peak : 0.944031 CRC32 hash (test run) : 1637FE76 CRC32 hash : 1637FE76 CRC32 hash (skip zero) : DEF4A66C AccurateRip signature : 483109C2 ->Track not present in AccurateRip database. Statistics Read error : 0 Skipped (treated as error) : 0 Edge jitter error (maybe fixed) : 0 Atom jitter error (maybe fixed) : 0 Drift error (maybe fixed) : 0 Dropped bytes error (maybe fixed) : 0 Duplicated bytes error (maybe fixed) : 0 Inconsistency in error sectors : 0

Track 04 Filename : /Volumes/VERBATIM/new/04. Goliath - Various Artists - Saw 3D.flac Pre-gap length : 00:01:00

Track gain : -9.22 dB Peak : 0.998840 CRC32 hash (test run) : B2E55D63 CRC32 hash : B2E55D63 CRC32 hash (skip zero) : 268218B2 AccurateRip signature : 83305372 ->Track not present in AccurateRip database. Statistics Read error : 0 Skipped (treated as error) : 0 Edge jitter error (maybe fixed) : 1 Atom jitter error (maybe fixed) : 1 Drift error (maybe fixed) : 0 Dropped bytes error (maybe fixed) : 0 Duplicated bytes error (maybe fixed) : 0 Inconsistency in error sectors : 0

Track 05 Filename : /Volumes/VERBATIM/new/05. Promises - Various Artists - Saw 3D.flac Pre-gap length : 00:01:00

Track gain : -7.37 dB Peak : 0.813049 CRC32 hash (test run) : E09E515B CRC32 hash : E09E515B CRC32 hash (skip zero) : 370AD33A AccurateRip signature : F2980ADE ->Track not present in AccurateRip database. Statistics Read error : 0 Skipped (treated as error) : 0 Edge jitter error (maybe fixed) : 0 Atom jitter error (maybe fixed) : 0 Drift error (maybe fixed) : 0 Dropped bytes error (maybe fixed) : 0 Duplicated bytes error (maybe fixed) : 0 Inconsistency in error sectors : 0

Track 06 Filename : /Volumes/VERBATIM/new/06. Love Is Dead - Various Artists - Saw 3D.flac Pre-gap length : 00:01:00

Track gain : -9.67 dB Peak : 0.944031 CRC32 hash (test run) : 5DF769BF CRC32 hash : 5DF769BF CRC32 hash (skip zero) : 0AC8CD66 AccurateRip signature : 7E91DD9E ->Track not present in AccurateRip database. Statistics Read error : 0 Skipped (treated as error) : 0 Edge jitter error (maybe fixed) : 0 Atom jitter error (maybe fixed) : 0 Drift error (maybe fixed) : 0 Dropped bytes error (maybe fixed) : 0 Duplicated bytes error (maybe fixed) : 0 Inconsistency in error sectors : 0

Track 07 Filename : /Volumes/VERBATIM/new/07. Badass - Various Artists - Saw 3D.flac

Track gain : -9.63 dB Peak : 0.891235 CRC32 hash (test run) : 34D7C931 CRC32 hash : 34D7C931 CRC32 hash (skip zero) : 21D95537 AccurateRip signature : 2FC7A828 ->Track not present in AccurateRip database. Statistics Read error : 0 Skipped (treated as error) : 0 Edge jitter error (maybe fixed) : 0 Atom jitter error (maybe fixed) : 0 Drift error (maybe fixed) : 0 Dropped bytes error (maybe fixed) : 0 Duplicated bytes error (maybe fixed) : 0 Inconsistency in error sectors : 0

Track 08 Filename : /Volumes/VERBATIM/new/08. The World Belongs To Me - Various Artists - Saw 3D.flac Pre-gap length : 00:01:00

Track gain : -8.74 dB Peak : 0.870880 CRC32 hash (test run) : 06121AF6 CRC32 hash : 06121AF6 CRC32 hash (skip zero) : 5833D0DA AccurateRip signature : AB77F006 ->Track not present in AccurateRip database. Statistics Read error : 0 Skipped (treated as error) : 0 Edge jitter error (maybe fixed) : 0 Atom jitter error (maybe fixed) : 0 Drift error (maybe fixed) : 0 Dropped bytes error (maybe fixed) : 0 Duplicated bytes error (maybe fixed) : 0 Inconsistency in error sectors : 0

Track 09 Filename : /Volumes/VERBATIM/new/09. Turn It On - Various Artists - Saw 3D.flac Pre-gap length : 00:01:00

Track gain : -10.22 dB Peak : 0.944031 CRC32 hash (test run) : 244C7CA6 CRC32 hash : 244C7CA6 CRC32 hash (skip zero) : 60EBFABC AccurateRip signature : 10C833ED ->Track not present in AccurateRip database. Statistics Read error : 0 Skipped (treated as error) : 0 Edge jitter error (maybe fixed) : 0 Atom jitter error (maybe fixed) : 0 Drift error (maybe fixed) : 0 Dropped bytes error (maybe fixed) : 0 Duplicated bytes error (maybe fixed) : 0 Inconsistency in error sectors : 0

Track 10 Filename : /Volumes/VERBATIM/new/10. Fire Fly - Various Artists - Saw 3D.flac Pre-gap length : 00:01:00

Track gain : -11.22 dB Peak : 0.999969 CRC32 hash (test run) : 527E17CB CRC32 hash : 527E17CB CRC32 hash (skip zero) : D955BE91 AccurateRip signature : 6993A9E5 ->Track not present in AccurateRip database. Statistics Read error : 0 Skipped (treated as error) : 0 Edge jitter error (maybe fixed) : 0 Atom jitter error (maybe fixed) : 0 Drift error (maybe fixed) : 0 Dropped bytes error (maybe fixed) : 0 Duplicated bytes error (maybe fixed) : 0 Inconsistency in error sectors : 0

Track 11 Filename : /Volumes/VERBATIM/new/11. What Goes Round Comes Around - Various Artists - Saw 3D.flac Pre-gap length : 00:01:00

Track gain : -9.03 dB Peak : 0.841370 CRC32 hash (test run) : DBB8E3EB CRC32 hash : DBB8E3EB CRC32 hash (skip zero) : A5D82714 AccurateRip signature : B07244B6 ->Track not present in AccurateRip database. Statistics Read error : 0 Skipped (treated as error) : 0 Edge jitter error (maybe fixed) : 0 Atom jitter error (maybe fixed) : 0 Drift error (maybe fixed) : 0 Dropped bytes error (maybe fixed) : 0 Duplicated bytes error (maybe fixed) : 0 Inconsistency in error sectors : 0

Track 12 Filename : /Volumes/VERBATIM/new/12. Scream - Various Artists - Saw 3D.flac Pre-gap length : 00:01:00

Track gain : -9.72 dB Peak : 0.999115 CRC32 hash (test run) : E261271C CRC32 hash : E261271C CRC32 hash (skip zero) : 7BDC913E AccurateRip signature : 402C5802 ->Track not present in AccurateRip database. Statistics Read error : 0 Skipped (treated as error) : 0 Edge jitter error (maybe fixed) : 0 Atom jitter error (maybe fixed) : 0 Drift error (maybe fixed) : 0 Dropped bytes error (maybe fixed) : 0 Duplicated bytes error (maybe fixed) : 0 Inconsistency in error sectors : 0

Track 13 Filename : /Volumes/VERBATIM/new/13. Hoodoo Woman - Various Artists - Saw 3D.flac

Track gain : -8.83 dB Peak : 0.841370 CRC32 hash (test run) : B8371611 CRC32 hash : B8371611 CRC32 hash (skip zero) : 084EE7FC AccurateRip signature : 3DEC8BC8 ->Track not present in AccurateRip database. Statistics Read error : 0 Skipped (treated as error) : 0 Edge jitter error (maybe fixed) : 0 Atom jitter error (maybe fixed) : 0 Drift error (maybe fixed) : 0 Dropped bytes error (maybe fixed) : 0 Duplicated bytes error (maybe fixed) : 0 Inconsistency in error sectors : 0

Track 14 Filename : /Volumes/VERBATIM/new/14. This Is Heavy Metal - Various Artists - Saw 3D.flac Pre-gap length : 00:01:00

Track gain : -9.93 dB Peak : 0.988525 CRC32 hash (test run) : 198715A7 CRC32 hash : 198715A7 CRC32 hash (skip zero) : 3DD73003 AccurateRip signature : 88C23AB7 ->Track not present in AccurateRip database. Statistics Read error : 0 Skipped (treated as error) : 0 Edge jitter error (maybe fixed) : 0 Atom jitter error (maybe fixed) : 0 Drift error (maybe fixed) : 0 Dropped bytes error (maybe fixed) : 0 Duplicated bytes error (maybe fixed) : 0 Inconsistency in error sectors : 0

Track 15 Filename : /Volumes/VERBATIM/new/15. Ram The Crush - Various Artists - Saw 3D.flac Pre-gap length : 00:02:00

Track gain : -9.70 dB Peak : 0.741302 CRC32 hash (test run) : 0827D624 CRC32 hash : 0827D624 CRC32 hash (skip zero) : C54A8A2D AccurateRip signature : 4DBB0372 ->Track not present in AccurateRip database. Statistics Read error : 0 Skipped (treated as error) : 0 Edge jitter error (maybe fixed) : 0 Atom jitter error (maybe fixed) : 0 Drift error (maybe fixed) : 0 Dropped bytes error (maybe fixed) : 0 Duplicated bytes error (maybe fixed) : 0 Inconsistency in error sectors : 0

Track 16 Filename : /Volumes/VERBATIM/new/16. Hageshisa To, Kono Mune No Naka De Karamitsuita Shakunetsu No Yami - Various Artists - Saw 3D.flac Pre-gap length : 00:01:00

Track gain : -8.86 dB Peak : 0.891235 CRC32 hash (test run) : 614BFEEC CRC32 hash : 614BFEEC CRC32 hash (skip zero) : 1278740F AccurateRip signature : 77952A9A ->Track not present in AccurateRip database. Statistics Read error : 0 Skipped (treated as error) : 0 Edge jitter error (maybe fixed) : 0 Atom jitter error (maybe fixed) : 16 Drift error (maybe fixed) : 0 Dropped bytes error (maybe fixed) : 0 Duplicated bytes error (maybe fixed) : 0 Inconsistency in error sectors : 0

No errors occurred

End of status report
 
REM DISCNUMBER 1REM TOTALDISCS 1REM GENRE SoundtrackREM DATE 2010REM DISCID E50DD010TITLE "Saw 3D"FILE "01 - Saving Abel - Never.wav" WAVE TRACK 01 AUDIO TITLE "Never" PERFORMER "Saving Abel" ISRC USB:U1010040 FLAGS DCP INDEX 01 00:00:00 TRACK 02 AUDIO TITLE "Condemned" PERFORMER "Dead By Sunrise" ISRC USB:U1010041 FLAGS DCP INDEX 00 02:58:71FILE "02 - Dead By Sunrise - Condemned.wav" WAVE INDEX 01 00:00:00FILE "03 - Hinder - Waking Up The Devil.wav" WAVE TRACK 03 AUDIO TITLE "Waking Up The Devil" PERFORMER "Hinder" ISRC USB:U1010042 FLAGS DCP INDEX 01 00:00:00 TRACK 04 AUDIO TITLE "Goliath" PERFORMER "Karnivool" ISRC USB:U1010043 FLAGS DCP INDEX 00 04:12:19FILE "04 - Karnivool - Goliath.wav" WAVE INDEX 01 00:00:00 TRACK 05 AUDIO TITLE "Promises" PERFORMER "Nitzer Ebb" ISRC USB:U1010044 FLAGS DCP INDEX 00 04:37:73FILE "05 - Nitzer Ebb - Promises.wav" WAVE INDEX 01 00:00:00 TRACK 06 AUDIO TITLE "Love Is Dead" PERFORMER "Kopek" ISRC USB:U1010045 FLAGS DCP INDEX 00 03:48:19FILE "06 - Kopek - Love Is Dead.wav" WAVE INDEX 01 00:00:00FILE "07 - Saliva - Badass.wav" WAVE TRACK 07 AUDIO TITLE "Badass" PERFORMER "Saliva" ISRC USB:U1010046 FLAGS DCP INDEX 01 00:00:00 TRACK 08 AUDIO TITLE "The World Belongs To Me" PERFORMER "My Darkest Days" ISRC USB:U1010047 FLAGS DCP INDEX 00 03:03:61FILE "08 - My Darkest Days - The World Belongs To Me.wav" WAVE INDEX 01 00:00:00 TRACK 09 AUDIO TITLE "Turn It On" PERFORMER "Default" ISRC USB:U1010048 FLAGS DCP INDEX 00 03:41:44FILE "09 - Default - Turn It On.wav" WAVE INDEX 01 00:00:00 TRACK 10 AUDIO TITLE "Fire Fly" PERFORMER "I-Exist" ISRC USB:U1010049 FLAGS DCP INDEX 00 03:14:63FILE "10 - I-Exist - Fire Fly.wav" WAVE INDEX 01 00:00:00 TRACK 11 AUDIO TITLE "What Goes Round Comes Around" PERFORMER "Boom Boom Satellites" ISRC USB:U1010050 FLAGS DCP INDEX 00 04:23:15FILE "11 - Boom Boom Satellites - What Goes Round Comes Around.wav" WAVE INDEX 01 00:00:00 TRACK 12 AUDIO TITLE "Scream" PERFORMER "Adelitas Way" ISRC USB:U1010051 FLAGS DCP INDEX 00 04:29:02FILE "12 - Adelitas Way - Scream.wav" WAVE INDEX 01 00:00:00FILE "13 - Krokus - Hoodoo Woman.wav" WAVE TRACK 13 AUDIO TITLE "Hoodoo Woman" PERFORMER "Krokus" ISRC USB:U1010051 FLAGS DCP INDEX 01 00:00:00 TRACK 14 AUDIO TITLE "This Is Heavy Metal" PERFORMER "Lordi" ISRC USB:U1010053 FLAGS DCP INDEX 00 03:34:02FILE "14 - Lordi - This Is Heavy Metal.wav" WAVE INDEX 01 00:00:00 TRACK 15 AUDIO TITLE "Ram The Crush" PERFORMER "Wagdug Futuristic Unity" ISRC USB:U1010054 FLAGS DCP INDEX 00 02:59:26FILE "15 - Wagdug Futuristic Unity - Ram The Crush.wav" WAVE INDEX 01 00:00:00 TRACK 16 AUDIO TITLE "Hageshisa To, Kono Mune No Naka De Karamitsuita Shakunetsu No Yami" PERFORMER "Dir En Grey" ISRC USB:U1010055 FLAGS DCP INDEX 00 03:31:52FILE "16 - Dir En Grey - Hageshisa To, Kono Mune No Naka De Karamitsuita Shakunetsu No Yami.wav" WAVE INDEX 01 00:00:00


Трекер:  [ 02-Дек-2011 19:09 ]

  

Скачать .torrent

Размер .torrent файла 33 KB


Размер: 3.65 GB
Хэш (hash) релиза: b96c79be79a75a33e162f50aeeb8efb9823adbb4

Еще никто не оставлял запись к записи скачать торрент Пила 1-7 Saw 3D . Будь первым!

!Обратная связь