Скачать через торрент музыку Робокоп Робот-полицейский бесплатно без регистрации torrent

Если у вас наблюдаются проблемы со скриншотами, переходом по ссылками, скачиванием торрентов - проблемы в блокировщике рекламы AdBlock. #хорошегоДня!


Статистика раздачи
Размер:  318 MB   |    Зарегистрирован:  5 лет 9 месяцев   |    .torrent скачан:  43 раза   |   
Раздают:  1  
   
Загрузка...
 
Автор Сообщение

Galfimbul

avatar Galfimbul



Робокоп / Робот-полицейский
RoboCop
Composed by Basil Poledouris
Жанр: Score
Год выпуска диска: 2010
Год выпуска фильма: 1987
Страна-производитель диска: США
Издатель (лейбл): Intrada
Номер по каталогу: Special Collection Volume 129

Аудиокодек: FLAC (*.flac)
Тип рипа: tracks+.cue
Битрейт аудио: lossless
Продолжительность: 56:15

Источник: what.cd; forums.ffshrine.org (сканы)
Наличие сканов в содержимом раздачи: да
Треклист:
01 Main Title (0:48)
02 Have A Heart (0:34)
03 O.C.P. Monitors (1:44)
04 Twirl (0:28)
05 Van Chase (4:59)
06 Murphy Dies In O.R. (2:38)
07 Robo Lives (1:07)
08 Drive Montage (1:07)
09 Helpless Woman (1:19)
10 Nukem (0:29)
11 Murphy's Dream (3:08)
12 Gas Station Blow-Up (1:46)
13 Murphy Goes Home (4:17)
14 Clarence Frags Bob (1:47)
15 Rock Shop (3:45)
16 Robo Drives To Jones (1:49)
17 Directive 4 (1:06)
18 Robo & ED 209 Fight (2:12)
19 Force Shoots Robo (2:46)
20 Big Is Better (2:36)
21 Care Package (3:00)
22 Looking For Me (5:16)
23 Across The Board (End Credits) (7:35)
 
Exact Audio Copy V0.99 prebeta 5 from 4. May 2009

EAC extraction logfile from 19. April 2010, 6:22

Basil Poledouris / Robocop

Used drive : TSSTcorpCD/DVDW TS-H653L Adapter: 1 ID: 0

Read mode : SecureUtilize accurate stream : YesDefeat audio cache : YesMake use of C2 pointers : No

Read offset correction : 6Overread into Lead-In and Lead-Out : NoFill up missing offset samples with silence : YesDelete leading and trailing silent blocks : NoNull samples used in CRC calculations : YesUsed interface : Native Win32 interface for Win NT & 2000Gap handling : Appended to previous track

Used output format : User Defined EncoderSelected bitrate : 128 kBit/sQuality : HighAdd ID3 tag : NoCommand line compressor : C:\Program Files (x86)\Exact Audio Copy\Flac\flac.exeAdditional command line options : -V -8 -T "artist=%a" -T "title=%t" -T "album=%g" -T "date=%y" -T "tracknumber=%n" -T "genre=%m" %s

TOC of the extracted CD

Track | Start | Length | Start sector | End sector --------------------------------------------------------- 1 | 0:00.00 | 0:47.41 | 0 | 3565 2 | 0:47.41 | 0:33.70 | 3566 | 6110 3 | 1:21.36 | 1:43.38 | 6111 | 13873 4 | 3:04.74 | 0:27.41 | 13874 | 15939 5 | 3:32.40 | 4:58.46 | 15940 | 38335 6 | 8:31.11 | 2:38.25 | 38336 | 50210 7 | 11:09.36 | 1:07.21 | 50211 | 55256 8 | 12:16.57 | 1:06.52 | 55257 | 60258 9 | 13:23.34 | 1:19.02 | 60259 | 66185 10 | 14:42.36 | 0:29.29 | 66186 | 68389 11 | 15:11.65 | 3:08.04 | 68390 | 82493 12 | 18:19.69 | 1:45.67 | 82494 | 90435 13 | 20:05.61 | 4:17.30 | 90436 | 109740 14 | 24:23.16 | 1:47.22 | 109741 | 117787 15 | 26:10.38 | 3:44.72 | 117788 | 134659 16 | 29:55.35 | 1:49.32 | 134660 | 142866 17 | 31:44.67 | 1:06.05 | 142867 | 147821 18 | 32:50.72 | 2:12.32 | 147822 | 157753 19 | 35:03.29 | 2:45.66 | 157754 | 170194 20 | 37:49.20 | 2:36.08 | 170195 | 181902 21 | 40:25.28 | 2:59.71 | 181903 | 195398 22 | 43:25.24 | 5:15.74 | 195399 | 219097 23 | 48:41.23 | 7:34.48 | 219098 | 253195

Track 1

Filename C:\EACRips\01 - Main Title.wav

Pre-gap length 0:00:02.00

Peak level 98.4 % Track quality 100.0 % Test CRC 3F9D8314 Copy CRC 3F9D8314 Track not present in AccurateRip database Copy OK

Track 2

Filename C:\EACRips\02 - Have a Heart.wav

Peak level 34.7 % Track quality 100.0 % Test CRC 1515664A Copy CRC 1515664A Track not present in AccurateRip database Copy OK

Track 3

Filename C:\EACRips\03 - O.C.P. Monitors.wav

Peak level 79.0 % Track quality 100.0 % Test CRC 7CEFDAC3 Copy CRC 7CEFDAC3 Track not present in AccurateRip database Copy OK

Track 4

Filename C:\EACRips\04 - Twirl.wav

Peak level 19.1 % Track quality 99.6 % Test CRC AA994CA9 Copy CRC AA994CA9 Track not present in AccurateRip database Copy OK

Track 5

Filename C:\EACRips\05 - Van Chase.wav

Peak level 100.0 % Track quality 100.0 % Test CRC 3CF3C8BE Copy CRC 3CF3C8BE Track not present in AccurateRip database Copy OK

Track 6

Filename C:\EACRips\06 - Murphy Dies in O.R..wav

Peak level 94.4 % Track quality 100.0 % Test CRC C06DA6DE Copy CRC C06DA6DE Track not present in AccurateRip database Copy OK

Track 7

Filename C:\EACRips\07 - Robo Lives.wav

Peak level 63.7 % Track quality 100.0 % Test CRC 98ECE12B Copy CRC 98ECE12B Track not present in AccurateRip database Copy OK

Track 8

Filename C:\EACRips\08 - Drive Montage.wav

Peak level 99.4 % Track quality 100.0 % Test CRC 10AF222C Copy CRC 10AF222C Track not present in AccurateRip database Copy OK

Track 9

Filename C:\EACRips\09 - Helpless Woman.wav

Peak level 100.0 % Track quality 99.8 % Test CRC CDEB28A8 Copy CRC CDEB28A8 Track not present in AccurateRip database Copy OK

Track 10

Filename C:\EACRips\10 - Nukem.wav

Peak level 70.6 % Track quality 100.0 % Test CRC C08EC56C Copy CRC C08EC56C Track not present in AccurateRip database Copy OK

Track 11

Filename C:\EACRips\11 - Murphy's Dream.wav

Peak level 95.2 % Track quality 100.0 % Test CRC 17F5336F Copy CRC 17F5336F Track not present in AccurateRip database Copy OK

Track 12

Filename C:\EACRips\12 - Gas Station Blow-Up.wav

Peak level 97.6 % Track quality 99.8 % Test CRC 528AF0E6 Copy CRC 528AF0E6 Track not present in AccurateRip database Copy OK

Track 13

Filename C:\EACRips\13 - Murphy Goes Home.wav

Peak level 95.3 % Track quality 100.0 % Test CRC 6E85F72C Copy CRC 6E85F72C Track not present in AccurateRip database Copy OK

Track 14

Filename C:\EACRips\14 - Clarence Frags Bob.wav

Peak level 84.6 % Track quality 100.0 % Test CRC 6D4FE038 Copy CRC 6D4FE038 Track not present in AccurateRip database Copy OK

Track 15

Filename C:\EACRips\15 - Rock Shop.wav

Peak level 99.9 % Track quality 100.0 % Test CRC 5E87B448 Copy CRC 5E87B448 Track not present in AccurateRip database Copy OK

Track 16

Filename C:\EACRips\16 - Robo Drives to Jones.wav

Peak level 92.0 % Track quality 100.0 % Test CRC 86340794 Copy CRC 86340794 Track not present in AccurateRip database Copy OK

Track 17

Filename C:\EACRips\17 - Directive 4.wav

Peak level 92.2 % Track quality 99.8 % Test CRC E5D3650F Copy CRC E5D3650F Track not present in AccurateRip database Copy OK

Track 18

Filename C:\EACRips\18 - Robo & Ed 209 Fight.wav

Peak level 100.0 % Track quality 100.0 % Test CRC 5D0764AB Copy CRC 5D0764AB Track not present in AccurateRip database Copy OK

Track 19

Filename C:\EACRips\19 - Force Shoots Robo.wav

Peak level 91.3 % Track quality 100.0 % Test CRC 6C323AF7 Copy CRC 6C323AF7 Track not present in AccurateRip database Copy OK

Track 20

Filename C:\EACRips\20 - Big Is Better (Basil Poledouris - Steven Scott Smalley).wav

Peak level 52.7 % Track quality 100.0 % Test CRC F532F341 Copy CRC F532F341 Track not present in AccurateRip database Copy OK

Track 21

Filename C:\EACRips\21 - Care Package.wav

Peak level 18.4 % Track quality 100.0 % Test CRC E5921CCD Copy CRC E5921CCD Track not present in AccurateRip database Copy OK

Track 22

Filename C:\EACRips\22 - Looking for Me.wav

Peak level 100.0 % Track quality 100.0 % Test CRC 5121BA9E Copy CRC 5121BA9E Track not present in AccurateRip database Copy OK

Track 23

Filename C:\EACRips\23 - Across the Board (End Credits).wav

Peak level 100.0 % Track quality 100.0 % Test CRC 16294B11 Copy CRC 16294B11 Track not present in AccurateRip database Copy OK

None of the tracks are present in the AccurateRip database

No errors occurred

End of status report
 
REM GENRE SoundtrackREM DATE 1987REM DISCID 310D2F17REM COMMENT "ExactAudioCopy v0.99pb5"PERFORMER "Basil Poledouris"TITLE "Robocop"FILE "01 Main Title.wav" WAVE TRACK 01 AUDIO TITLE "Main Title" PERFORMER "Basil Poledouris" INDEX 01 00:00:00FILE "02 Have A Heart.wav" WAVE TRACK 02 AUDIO TITLE "Have A Heart" PERFORMER "Basil Poledouris" INDEX 01 00:00:00FILE "03 O.C.P. Monitors.wav" WAVE TRACK 03 AUDIO TITLE "O.C.P. Monitors" PERFORMER "Basil Poledouris" INDEX 01 00:00:00FILE "04 Twirl.wav" WAVE TRACK 04 AUDIO TITLE "Twirl" PERFORMER "Basil Poledouris" INDEX 01 00:00:00FILE "05 Van Chase.wav" WAVE TRACK 05 AUDIO TITLE "Van Chase" PERFORMER "Basil Poledouris" INDEX 01 00:00:00FILE "06 Murphy Dies In O.R..wav" WAVE TRACK 06 AUDIO TITLE "Murphy Dies In O.R." PERFORMER "Basil Poledouris" INDEX 01 00:00:00FILE "07 Robo Lives.wav" WAVE TRACK 07 AUDIO TITLE "Robo Lives" PERFORMER "Basil Poledouris" INDEX 01 00:00:00FILE "08 Drive Montage.wav" WAVE TRACK 08 AUDIO TITLE "Drive Montage" PERFORMER "Basil Poledouris" INDEX 01 00:00:00FILE "09 Helpless Woman.wav" WAVE TRACK 09 AUDIO TITLE "Helpless Woman" PERFORMER "Basil Poledouris" INDEX 01 00:00:00FILE "10 Nukem.wav" WAVE TRACK 10 AUDIO TITLE "Nukem" PERFORMER "Basil Poledouris" INDEX 01 00:00:00FILE "11 Murphy's Dream.wav" WAVE TRACK 11 AUDIO TITLE "Murphy's Dream" PERFORMER "Basil Poledouris" INDEX 01 00:00:00FILE "12 Gas Station Blow-Up.wav" WAVE TRACK 12 AUDIO TITLE "Gas Station Blow-Up" PERFORMER "Basil Poledouris" FLAGS DCP INDEX 01 00:00:00FILE "13 Murphy Goes Home.wav" WAVE TRACK 13 AUDIO TITLE "Murphy Goes Home" PERFORMER "Basil Poledouris" INDEX 01 00:00:00FILE "14 Clarence Frags Bob.wav" WAVE TRACK 14 AUDIO TITLE "Clarence Frags Bob" PERFORMER "Basil Poledouris" INDEX 01 00:00:00FILE "15 Rock Shop.wav" WAVE TRACK 15 AUDIO TITLE "Rock Shop" PERFORMER "Basil Poledouris" INDEX 01 00:00:00FILE "16 Robo Drives To Jones.wav" WAVE TRACK 16 AUDIO TITLE "Robo Drives To Jones" PERFORMER "Basil Poledouris" INDEX 01 00:00:00FILE "17 Directive 4.wav" WAVE TRACK 17 AUDIO TITLE "Directive 4" PERFORMER "Basil Poledouris" FLAGS DCP INDEX 01 00:00:00FILE "18 Robo & ED 209 Fight.wav" WAVE TRACK 18 AUDIO TITLE "Robo & ED 209 Fight" PERFORMER "Basil Poledouris" INDEX 01 00:00:00FILE "19 Force Shoots Robo.wav" WAVE TRACK 19 AUDIO TITLE "Force Shoots Robo" PERFORMER "Basil Poledouris" INDEX 01 00:00:00FILE "20 Big Is Better.wav" WAVE TRACK 20 AUDIO TITLE "Big Is Better" PERFORMER "Basil Poledouris" INDEX 01 00:00:00FILE "21 Care Package.wav" WAVE TRACK 21 AUDIO TITLE "Care Package" PERFORMER "Basil Poledouris" INDEX 01 00:00:00FILE "22 Looking For Me.wav" WAVE TRACK 22 AUDIO TITLE "Looking For Me" PERFORMER "Basil Poledouris" INDEX 01 00:00:00FILE "23 Across The Board (End Credits).wav" WAVE TRACK 23 AUDIO TITLE "Across The Board (End Credits)" PERFORMER "Basil Poledouris" INDEX 01 00:00:00


Трекер:  [ 02-Дек-2011 19:09 ]

  

Скачать .torrent

Размер .torrent файла 15 KB


Размер: 318 MB
Хэш (hash) релиза: 68ccd66dc2acaafd5c2170e4200d06b7acd5fbc9

Торренты, похожие на Робокоп Робот-полицейский скачать торрент

Форум Название Автор Размер S L Добавлен
Саундтреки к фильмам и мультфильмам (lossless) ·· (Score) Робокоп (Робот-полицейский) / Robocop [Remastered, Extra Tracks] (Basil Poledouris) - 2004, FLAC (tracks+.cue), lossless Galfimbul 251215451240 MB 0 0 1292270247

22:57

13-Дек-10

Саундтреки к фильмам и мультфильмам (lossless) ·· (Soundtrack) Робокоп / Робот-полицейский / Музыка из сериала ТВ/ Robocop - The Series (by Various) - 2005 (1986), FLAC (tracks+.cue), lossless Galfimbul 334615302319 MB 0 0 1322394184

14:43

27-Ноя-11

Саундтреки к фильмам и мультфильмам (mp3) ·· (Score) Robocop / Робокоп / Робот-полицейский [Limited Edition] (Basil Poledouris) - 2010 (1987), MP3 (tracks), 320 kbps Galfimbul 135166518129 MB 0 0 1292266226

21:50

13-Дек-10

Саундтреки ·· (Soundtrack) Робот-полицейский / Робокоп / Robocop - The Series (by Joe Walsh, VA) - 1994, MP3, 320 kbps _N_ 8919098385 MB 0 0 1341660720

14:32

7-Июл-12

Саундтреки к фильмам и мультфильмам (lossless) ·· (Score) Робокоп 2 / Робот-полицейский 2 / RoboCop 2 (by Leonard Rosenman) - 1990, FLAC (tracks+.cue), lossless Galfimbul 170642624163 MB 0 0 1322680632

22:17

30-Ноя-11

Саундтреки к фильмам и мультфильмам (lossless) ·· (Score) Робокоп 3 / Робот-полицейский 3 / RoboCop 3 (by Basil Poledouris) - 1993, FLAC (tracks+.cue), lossless Galfimbul 182417250174 MB 0 0 1322680631

22:17

30-Ноя-11

Саундтреки к фильмам и мультфильмам (lossless) ·· (Score)Робокоп возвращается / Робот-Полицейский: Основные директивы / Robocop: Prime Directives (by Norman Orenstein) - 2000, FLAC (tracks+.cue), lossless Galfimbul 423352639404 MB 0 0 1322394186

14:43

27-Ноя-11

Еще никто не оставлял запись к записи скачать торрент Робокоп Робот-полицейский . Будь первым!

!Обратная связь