Скачать через торрент музыку Дюна Dune бесплатно без регистрации torrent

Если у вас наблюдаются проблемы со скриншотами, переходом по ссылками, скачиванием торрентов - проблемы в блокировщике рекламы AdBlock. #хорошегоДня!


Статистика раздачи
Размер:  206 MB   |    Зарегистрирован:  6 лет   |    .torrent скачан:  58 раз   |   
Раздают:  1  
   
Загрузка...
 
Автор Сообщение

Galfimbul

avatar Galfimbul


Дюна / Dune

Жанр: Score
Композитор: Toto, Brian Eno
Год выпуска диска: 1984
Страна-производитель диска: ФРГ
Издатель (лейбл): Polydor
Номер по каталогу: 823 770-2

Аудиокодек: FLAC (*.flac)
Тип рипа: tracks+.cue
Битрейт аудио: lossless
Продолжительность: 41:37

Источник: what.cd
Наличие сканов в содержимом раздачи: да

Треклист:
01 Prologue (1:49)
02 Main Title (1:21)
03 Robot Fight (1:14)
04 Leto's Theme (1:45)
05 The Box (2:38)
06 The Floating Fat Man (The Baron) (1:26)
07 Trip To Arrakis (2:37)
08 First Attack (2:49)
09 Prophecy Theme (Composed by Brian Eno) (4:21)
10 Dune (Desert Theme) (5:33)
11 Paul Meets Chani (3:05)
12 Prelude (Take My Hand) (1:01)
13 Paul Takes The Water Of Life (2:52)
14 Big Battle (3:08)
15 Paul Kills Feyd (1:53)
16 Final Dream (1:26)
17 Take My Hand (2:38)
 
Exact Audio Copy V0.99 prebeta 4 from 23. January 2008

EAC extraction logfile from 27. July 2008, 16:21

Toto / Dune

Used drive : _NEC DVD_RW ND-3570A Adapter: 0 ID: 0

Read mode : SecureUtilize accurate stream : YesDefeat audio cache : YesMake use of C2 pointers : No

Read offset correction : 48Overread into Lead-In and Lead-Out : NoFill up missing offset samples with silence : YesDelete leading and trailing silent blocks : NoNull samples used in CRC calculations : YesUsed interface : Native Win32 interface for Win NT & 2000Gap handling : Appended to previous track

Used output format : User Defined EncoderSelected bitrate : 320 kBit/sQuality : HighAdd ID3 tag : NoCommand line compressor : C:\Program Files\Exact Audio Copy\Flac\flac.exeAdditional command line options : -V -8 -T "artist=%a" -T "title=%t" -T "album=%g" -T "date=%y" -T "tracknumber=%n" -T "genre=%m" %s

TOC of the extracted CD

Track | Start | Length | Start sector | End sector --------------------------------------------------------- 1 | 0:00.32 | 1:48.55 | 32 | 8186 2 | 1:49.12 | 1:20.70 | 8187 | 14256 3 | 3:10.07 | 1:14.28 | 14257 | 19834 4 | 4:24.35 | 1:45.35 | 19835 | 27744 5 | 6:09.70 | 2:38.02 | 27745 | 39596 6 | 8:47.72 | 1:26.25 | 39597 | 46071 7 | 10:14.22 | 2:36.53 | 46072 | 57824 8 | 12:51.00 | 2:48.55 | 57825 | 70479 9 | 15:39.55 | 4:21.22 | 70480 | 90076 10 | 20:01.02 | 5:32.60 | 90077 | 115036 11 | 25:33.62 | 3:05.30 | 115037 | 128941 12 | 28:39.17 | 1:00.73 | 128942 | 133514 13 | 29:40.15 | 2:52.20 | 133515 | 146434 14 | 32:32.35 | 3:08.15 | 146435 | 160549 15 | 35:40.50 | 1:52.62 | 160550 | 169011 16 | 37:33.37 | 1:25.58 | 169012 | 175444 17 | 38:59.20 | 2:38.32 | 175445 | 187326

Track 1

Filename D:\EAC\Toto-Dune-1984\01-Prologue.wav

Pre-gap length 0:00:02.42

Peak level 42.1 % Track quality 100.0 % Test CRC 410C6222 Copy CRC 410C6222 Accurately ripped (confidence 12) [0C3018BC] Copy OK

Track 2

Filename D:\EAC\Toto-Dune-1984\02-Main_Title.wav

Peak level 71.8 % Track quality 100.0 % Test CRC 4FDA90BD Copy CRC 4FDA90BD Accurately ripped (confidence 13) [7E88E09B] Copy OK

Track 3

Filename D:\EAC\Toto-Dune-1984\03-Robot_Fight.wav

Peak level 61.9 % Track quality 99.8 % Test CRC 6FB68AEF Copy CRC 6FB68AEF Accurately ripped (confidence 12) [80B8D10C] Copy OK

Track 4

Filename D:\EAC\Toto-Dune-1984\04-Leto's_Theme.wav

Pre-gap length 0:00:02.00

Peak level 43.5 % Track quality 100.0 % Test CRC DA4A1CA6 Copy CRC DA4A1CA6 Accurately ripped (confidence 12) [D4DD6596] Copy OK

Track 5

Filename D:\EAC\Toto-Dune-1984\05-The_Box.wav

Pre-gap length 0:00:01.50

Peak level 54.1 % Track quality 100.0 % Test CRC 23CE8223 Copy CRC 23CE8223 Accurately ripped (confidence 11) [981B054A] Copy OK

Track 6

Filename D:\EAC\Toto-Dune-1984\06-The_Floating_Fat_Man_(The_Baron).wav

Peak level 73.5 % Track quality 99.8 % Test CRC EBB53CF0 Copy CRC EBB53CF0 Accurately ripped (confidence 12) [EFAE6A38] Copy OK

Track 7

Filename D:\EAC\Toto-Dune-1984\07-Trip_to_Arrakis.wav

Pre-gap length 0:00:02.00

Peak level 41.8 % Track quality 99.9 % Test CRC 3C7CE6E7 Copy CRC 3C7CE6E7 Accurately ripped (confidence 11) [57EB86A3] Copy OK

Track 8

Filename D:\EAC\Toto-Dune-1984\08-First_Attack.wav

Pre-gap length 0:00:01.46

Peak level 87.7 % Track quality 100.0 % Test CRC 57119EB5 Copy CRC 57119EB5 Accurately ripped (confidence 13) [45A88DDA] Copy OK

Track 9

Filename D:\EAC\Toto-Dune-1984\09-Prophecy_Theme_(By_Brian_Eno).wav

Pre-gap length 0:00:04.40

Peak level 37.8 % Track quality 100.0 % Test CRC 3243303E Copy CRC 3243303E Accurately ripped (confidence 12) [728643D4] Copy OK

Track 10

Filename D:\EAC\Toto-Dune-1984\10-Dune_(Desert_Theme).wav

Peak level 77.4 % Track quality 100.0 % Test CRC B9D33953 Copy CRC B9D33953 Accurately ripped (confidence 11) [4C218F70] Copy OK

Track 11

Filename D:\EAC\Toto-Dune-1984\11-Paul_Meets_Chani.wav

Pre-gap length 0:00:01.69

Peak level 51.1 % Track quality 100.0 % Test CRC EEA7B920 Copy CRC EEA7B920 Accurately ripped (confidence 11) [120D463C] Copy OK

Track 12

Filename D:\EAC\Toto-Dune-1984\12-Prelude_(Take_My_Hand).wav

Pre-gap length 0:00:00.53

Peak level 48.4 % Track quality 100.0 % Test CRC A5299918 Copy CRC A5299918 Accurately ripped (confidence 12) [693C5D6A] Copy OK

Track 13

Filename D:\EAC\Toto-Dune-1984\13-Paul_Takes_The_Water_Of_Life.wav

Pre-gap length 0:00:00.66

Peak level 31.9 % Track quality 100.0 % Test CRC 6F3DDF3C Copy CRC 6F3DDF3C Accurately ripped (confidence 11) [447E8796] Copy OK

Track 14

Filename D:\EAC\Toto-Dune-1984\14-Big_Battle.wav

Pre-gap length 0:00:00.53

Peak level 69.8 % Track quality 100.0 % Test CRC E7074944 Copy CRC E7074944 Accurately ripped (confidence 11) [919D230F] Copy OK

Track 15

Filename D:\EAC\Toto-Dune-1984\15-Paul_Kills_Feyd.wav

Pre-gap length 0:00:01.20

Peak level 66.0 % Track quality 100.0 % Test CRC D14D0A83 Copy CRC D14D0A83 Accurately ripped (confidence 11) [AB4B6142] Copy OK

Track 16

Filename D:\EAC\Toto-Dune-1984\16-Final_Dream.wav

Pre-gap length 0:00:00.96

Peak level 67.9 % Track quality 100.0 % Test CRC 7C6E5618 Copy CRC 7C6E5618 Accurately ripped (confidence 11) [CC60C4B1] Copy OK

Track 17

Filename D:\EAC\Toto-Dune-1984\17-Take_My_Hand.wav

Pre-gap length 0:00:02.30

Peak level 56.7 % Track quality 99.9 % Test CRC D3D0E106 Copy CRC D3D0E106 Accurately ripped (confidence 12) [B8F8B2C1] Copy OK

All tracks accurately ripped

No errors occurred

End of status report
 
REM GENRE SoundtrackREM DATE 1984REM DISCID CB09C111REM COMMENT "ExactAudioCopy v0.99pb4"PERFORMER "Toto"TITLE "Dune"FILE "01 Prologue.wav" WAVE TRACK 01 AUDIO TITLE "Prologue" PERFORMER "Toto" PREGAP 00:00:32 INDEX 01 00:00:00FILE "02 Main Title.wav" WAVE TRACK 02 AUDIO TITLE "Main Title" PERFORMER "Toto" INDEX 01 00:00:00FILE "03 Robot Fight.wav" WAVE TRACK 03 AUDIO TITLE "Robot Fight" PERFORMER "Toto" INDEX 01 00:00:00 TRACK 04 AUDIO TITLE "Leto's Theme" PERFORMER "Toto" INDEX 00 01:12:28FILE "04 Leto's Theme.wav" WAVE INDEX 01 00:00:00 TRACK 05 AUDIO TITLE "The Box" PERFORMER "Toto" INDEX 00 01:43:72FILE "05 The Box.wav" WAVE INDEX 01 00:00:00FILE "06 The Floating Fat Man (The Baron).wav" WAVE TRACK 06 AUDIO TITLE "The Floating Fat Man (The Baron)" PERFORMER "Toto" INDEX 01 00:00:00 TRACK 07 AUDIO TITLE "Trip To Arrakis" PERFORMER "Toto" INDEX 00 01:24:25FILE "07 Trip To Arrakis.wav" WAVE INDEX 01 00:00:00 TRACK 08 AUDIO TITLE "First Attack" PERFORMER "Toto" INDEX 00 02:35:18FILE "08 First Attack.wav" WAVE INDEX 01 00:00:00 TRACK 09 AUDIO TITLE "Prophecy Theme (Composed by Brian Eno)" PERFORMER "Brian Eno" INDEX 00 02:44:25FILE "09 Prophecy Theme (Composed by Brian Eno).wav" WAVE INDEX 01 00:00:00FILE "10 Dune (Desert Theme).wav" WAVE TRACK 10 AUDIO TITLE "Dune (Desert Theme)" PERFORMER "Toto" INDEX 01 00:00:00 TRACK 11 AUDIO TITLE "Paul Meets Chani" PERFORMER "Toto" INDEX 00 05:31:08FILE "11 Paul Meets Chani.wav" WAVE INDEX 01 00:00:00 TRACK 12 AUDIO TITLE "Prelude (Take My Hand)" PERFORMER "Toto" INDEX 00 03:04:65FILE "12 Prelude (Take My Hand).wav" WAVE INDEX 01 00:00:00 TRACK 13 AUDIO TITLE "Paul Takes The Water Of Life" PERFORMER "Toto" INDEX 00 01:00:23FILE "13 Paul Takes The Water Of Life.wav" WAVE INDEX 01 00:00:00 TRACK 14 AUDIO TITLE "Big Battle" PERFORMER "Toto" INDEX 00 02:51:55FILE "14 Big Battle.wav" WAVE INDEX 01 00:00:00 TRACK 15 AUDIO TITLE "Paul Kills Feyd" PERFORMER "Toto" INDEX 00 03:07:00FILE "15 Paul Kills Feyd.wav" WAVE INDEX 01 00:00:00 TRACK 16 AUDIO TITLE "Final Dream" PERFORMER "Toto" INDEX 00 01:51:65FILE "16 Final Dream.wav" WAVE INDEX 01 00:00:00 TRACK 17 AUDIO TITLE "Take My Hand" PERFORMER "Toto" INDEX 00 01:23:35FILE "17 Take My Hand.wav" WAVE INDEX 01 00:00:00


Трекер:  [ 02-Дек-2011 19:09 ]

  

Скачать .torrent

Размер .torrent файла 18 KB


Размер: 206 MB
Хэш (hash) релиза: 6dd02d90b7a3cb8d69fbc1db11d3f23802603203

Торренты, похожие на Дюна Dune скачать торрент

Форум Название Автор Размер S L Добавлен
Саундтреки ·· (Score) Дюна / Dune [Expanded Score] (by Toto) - 1997, MP3, 320 kbps Galfimbul 173381887165 MB 0 0 1347170760

09:06

9-Сен-12

Саундтреки к фильмам и мультфильмам (lossless) ·· (Soundtrack) Дюна / Dune - 1984, APE (image + .cue), lossless Galfimbul 205552789196 MB 0 0 1292270454

23:00

13-Дек-10

Саундтреки к фильмам и мультфильмам (lossless) ·· (Score) Дюна / Dune [Expanded] (by Toto) - 1997 (1984), APE (image+.cue), lossless Galfimbul 385409220368 MB 0 0 1292270425

23:00

13-Дек-10

Саундтреки к фильмам и мультфильмам (mp3) ·· (Score) Дюна Ходоровского / Jodorowsky's Dune (Original Motion Picture Soundtrack) (Kurt Stenzel) - 2015, MP3, 320 kbps Galfimbul 213640647204 MB 0 0 1463458301

07:11

17-Май-16

Саундтреки к фильмам и мультфильмам (mp3) ·· [Score] Дети Дюны|Children Of Dune [Brian Tyler] [2003] MP3|320 kbps Galfimbul 187508217179 MB 0 0 1458841848

20:50

24-Мар-16

Саундтреки к фильмам и мультфильмам (lossless) ·· (Score) Дюна Фрэнка Герберта / Frank Herbert's Dune (Sci-Fi Miniseries) by Graeme Revell - 2001, FLAC (tracks + .cue), lossless Galfimbul 310774631296 MB 0 0 1292270235

22:57

13-Дек-10

Еще никто не оставлял запись к записи скачать торрент Дюна Dune . Будь первым!

!Обратная связь