Скачать через торрент музыку Список Шиндлера Schindlers List бесплатно без регистрации torrent

Если у вас наблюдаются проблемы со скриншотами, переходом по ссылками, скачиванием торрентов - проблемы в блокировщике рекламы AdBlock. #хорошегоДня!


Статистика раздачи
Размер:  338 MB   |    Зарегистрирован:  5 лет 9 месяцев   |    .torrent скачан:  52 раза   |   
Раздают:  1  
   
Загрузка...
 
Автор Сообщение

Galfimbul

avatar Galfimbul


Список Шиндлера | Schindler's List, Special Collector's Edition
Жанр: Score
Композитор и дирижер: John Williams, скрипка Itzhak Perlman
Год издания диска: 1993
Страна-производитель диска: США
Издатель (лейбл): MCA Records
Номер по каталогу: MCAD-10969
Штрих-код: 0 08811 09692 2
Матрица диска: DIDX-151157 1
Mastering SID code: IFPI L327
Mould SID code: IFPI 7242

Аудиокодек: FLAC (*.flac)
Тип рипа: image+.cue
Битрейт аудио: lossless
Продолжительность: 1:04:34.760
Источник: собственный диск
Сканы: *.jpg, 600 dpi

Треклист:
01. Itzhak Perlman (violin solos) & The Boston Symphony Orchestra - Theme From Schindler's List (4:15)
02. Itzhak Perlman (violin solos) & The Boston Symphony Orchestra - Jewish Town (Krakow Ghetto - Winter '41) (4:40)
03. John Williams - Immolation (With Our Lives, We Give Life) (4:44)
04. John Williams - Remembrances (4:20)
05. John Williams - Schindler's Workforce (9:08)
06. The Li-Ron Herzeliya Children's Choir, conductor Ronit Shapira & Giora Feidman (clarinet solos) - OYF'N Pripetshok & Nacht Aktion (2:56)
07. Itzhak Perlman (violin solos) & The Boston Symphony Orchestra - I Could Have Done More (5:52)
08. Itzhak Perlman (violin solos) & The Boston Symphony Orchestra - Auschwitz-Birkenau (3:41)
09. John Williams - Stolen Memories (4:20)
10. Itzhak Perlman (violin solos) & The Boston Symphony Orchestra - Making The List (5:11)
11. John Williams - Give Me Your Names (4:55)
12. The Ramat Gan Chamber Choir, conductor Hana Tzur - Yeroushalaim Chel Zahav (Jerusalem of Gold) (2:17)
13. John Williams - Remembrances (with Itzhak Perlman) (5:17)
14. John Williams - Theme From Schindler's List (Reprise) (2:59)
 
Exact Audio Copy V1.0 beta 3 from 29. August 2011

EAC extraction logfile from 27. November 2011, 19:28

VA / John Williams - Schindler's List OMPS (MCAD-10969)

Used drive : ASUS DRW-24B1ST Adapter: 3 ID: 0

Read mode : SecureUtilize accurate stream : YesDefeat audio cache : YesMake use of C2 pointers : No

Read offset correction : 6Overread into Lead-In and Lead-Out : NoFill up missing offset samples with silence : YesDelete leading and trailing silent blocks : NoNull samples used in CRC calculations : YesUsed interface : Native Win32 interface for Win NT & 2000

Used output format : Internal WAV RoutinesSample format : 44.100 Hz; 16 Bit; Stereo

TOC of the extracted CD

Track | Start | Length | Start sector | End sector --------------------------------------------------------- 1 | 0:00.00 | 4:15.12 | 0 | 19136 2 | 4:15.12 | 4:40.15 | 19137 | 40151 3 | 8:55.27 | 4:43.65 | 40152 | 61441 4 | 13:39.17 | 4:20.15 | 61442 | 80956 5 | 17:59.32 | 9:08.30 | 80957 | 122086 6 | 27:07.62 | 2:56.00 | 122087 | 135286 7 | 30:03.62 | 5:52.10 | 135287 | 161696 8 | 35:55.72 | 3:40.58 | 161697 | 178254 9 | 39:36.55 | 4:20.00 | 178255 | 197754 10 | 43:56.55 | 5:10.67 | 197755 | 221071 11 | 49:07.47 | 4:54.50 | 221072 | 243171 12 | 54:02.22 | 2:17.08 | 243172 | 253454 13 | 56:19.30 | 5:16.45 | 253455 | 277199 14 | 61:36.00 | 2:58.57 | 277200 | 290606

Range status and errors

Selected range

Filename Z:\VA - John Williams - Schindler's List OMPS (MCAD-10969).wav

Peak level 98.9 % Extraction speed 6.4 X Range quality 99.9 % Test CRC 0BFBCFC3 Copy CRC 0BFBCFC3 Copy OK

No errors occurred

AccurateRip summary

Track 1 accurately ripped (confidence 2) [6CB1A965] (AR v2)Track 2 accurately ripped (confidence 2) [0B16E657] (AR v2)Track 3 accurately ripped (confidence 2) [AD090D96] (AR v2)Track 4 accurately ripped (confidence 2) [E35DD3B9] (AR v2)Track 5 accurately ripped (confidence 2) [D68055E4] (AR v2)Track 6 accurately ripped (confidence 2) [DE32B9AB] (AR v2)Track 7 accurately ripped (confidence 2) [5DFEDDE5] (AR v2)Track 8 accurately ripped (confidence 2) [00A49780] (AR v2)Track 9 accurately ripped (confidence 2) [C6191B33] (AR v2)Track 10 accurately ripped (confidence 2) [46B38D54] (AR v2)Track 11 accurately ripped (confidence 2) [1A641423] (AR v2)Track 12 accurately ripped (confidence 6) [11299CA3] (AR v1)Track 13 accurately ripped (confidence 2) [8C4ABC0D] (AR v2)Track 14 accurately ripped (confidence 2) [C308A3A5] (AR v2)

All tracks accurately ripped

End of status report

---- CUETools DB Plugin V2.1.3

[CTDB TOCID: yPiyn.ZXRobhZ7fqyt3NLqOtPXw-] disk not present in database, Submit result: yPiyn.ZXRobhZ7fqyt3NLqOtPXw- has been uploaded

==== Log checksum 5F0D4FF7C0B30A85764B3D27C9BDFA28AE0265C92B33F0FF3810DC3DFF6A41A2 ====
 
REM GENRE "Classical, Score"REM DATE 1993REM DISCID D80F220EREM COMMENT "ExactAudioCopy v1.0b3"PERFORMER "VA"TITLE "John Williams - Schindler's List OMPS (MCAD-10969)"FILE "VA - John Williams - Schindler's List OMPS (MCAD-10969).flac" WAVE TRACK 01 AUDIO TITLE "Theme From Schindler's List" PERFORMER "Itzhak Perlman (violin solos) & The Boston Symphony Orchestra" ISRC USMC19341929 INDEX 01 00:00:00 TRACK 02 AUDIO TITLE "Jewish Town (Krakow Ghetto - Winter '41)" PERFORMER "Itzhak Perlman (violin solos) & The Boston Symphony Orchestra" ISRC USMC19341930 INDEX 01 04:15:12 TRACK 03 AUDIO TITLE "Immolation (With Our Lives, We Give Life)" PERFORMER "John Williams" ISRC USMC19341931 INDEX 01 08:55:27 TRACK 04 AUDIO TITLE "Remembrances" PERFORMER "John Williams" ISRC USMC19341932 INDEX 01 13:39:17 TRACK 05 AUDIO TITLE "Schindler's Workforce" PERFORMER "John Williams" ISRC USMC19341933 INDEX 01 17:59:32 TRACK 06 AUDIO TITLE "OYF'N Pripetshok & Nacht Aktion" PERFORMER "The Li-Ron Herzeliya Children's Choir, conductor Ronit Shapira & Giora Feidman (clarinet solos)" ISRC USMC19341934 INDEX 01 27:07:62 TRACK 07 AUDIO TITLE "I Could Have Done More" PERFORMER "Itzhak Perlman (violin solos) & The Boston Symphony Orchestra" ISRC USMC19341935 INDEX 01 30:03:62 TRACK 08 AUDIO TITLE "Auschwitz-Birkenau" PERFORMER "Itzhak Perlman (violin solos) & The Boston Symphony Orchestra" ISRC USMC19341936 INDEX 01 35:55:72 TRACK 09 AUDIO TITLE "Stolen Memories" PERFORMER "John Williams" ISRC USMC19341937 INDEX 01 39:36:55 TRACK 10 AUDIO TITLE "Making The List" PERFORMER "Itzhak Perlman (violin solos) & The Boston Symphony Orchestra" ISRC USMC19341938 INDEX 01 43:56:55 TRACK 11 AUDIO TITLE "Give Me Your Names" PERFORMER "John Williams" ISRC USMC19341939 INDEX 01 49:07:47 TRACK 12 AUDIO TITLE "Yeroushalaim Chel Zahav (Jerusalem of Gold)" PERFORMER "The Ramat Gan Chamber Choir, conductor Hana Tzur" ISRC USMC19341940 INDEX 00 54:01:17 INDEX 01 54:02:22 TRACK 13 AUDIO TITLE "Remembrances (with Itzhak Perlman)" PERFORMER "John Williams" ISRC USMC19341941 INDEX 00 56:18:15 INDEX 01 56:19:30 TRACK 14 AUDIO TITLE "Theme From Schindler's List (Reprise)" PERFORMER "John Williams" ISRC USMC19341942 INDEX 00 61:34:55 INDEX 01 61:36:00
 
foobar2000 1.1.8 / Dynamic Range Meter 1.1.0log date: 2011-11-27 19:59:42

--------------------------------------------------------------------------------Analyzed: Itzhak Perlman (violin solos) & The Boston Symphony Orchestra / John Williams - Schindler's List OMPS (MCAD-10969) (1-2) John Williams / John Williams - Schindler's List OMPS (MCAD-10969) (3-5) The Li-Ron Herzeliya Children's Choir, conductor Ronit Shapira & Giora Feidman (clarinet solos) / John Williams - Schindler's List OMPS (MCAD-10969) (6) Itzhak Perlman (violin solos) & The Boston Symphony Orchestra / John Williams - Schindler's List OMPS (MCAD-10969) (7-8) John Williams / John Williams - Schindler's List OMPS (MCAD-10969) (9) Itzhak Perlman (violin solos) & The Boston Symphony Orchestra / John Williams - Schindler's List OMPS (MCAD-10969) (10) John Williams / John Williams - Schindler's List OMPS (MCAD-10969) (11) The Ramat Gan Chamber Choir, conductor Hana Tzur / John Williams - Schindler's List OMPS (MCAD-10969) (12) John Williams / John Williams - Schindler's List OMPS (MCAD-10969) (13-14)--------------------------------------------------------------------------------

DR Peak RMS Duration Track--------------------------------------------------------------------------------DR13 -7.21 dB -25.25 dB 4:15 01-Theme From Schindler's ListDR13 -3.14 dB -23.71 dB 4:40 02-Jewish Town (Krakow Ghetto - Winter '41)DR13 -0.10 dB -20.24 dB 4:44 03-Immolation (With Our Lives, We Give Life)DR13 -4.29 dB -24.12 dB 4:20 04-RemembrancesDR13 -5.10 dB -22.84 dB 9:08 05-Schindler's WorkforceDR12 -10.65 dB -27.26 dB 2:56 06-OYF'N Pripetshok & Nacht AktionDR13 -2.94 dB -21.13 dB 5:52 07-I Could Have Done MoreDR13 -0.44 dB -19.40 dB 3:41 08-Auschwitz-BirkenauDR12 -9.47 dB -27.72 dB 4:20 09-Stolen MemoriesDR13 -1.49 dB -23.75 dB 5:11 10-Making The ListDR12 -4.58 dB -22.89 dB 4:55 11-Give Me Your NamesDR13 -9.38 dB -27.21 dB 2:17 12-Yeroushalaim Chel Zahav (Jerusalem of Gold)DR12 -5.41 dB -23.32 dB 5:17 13-Remembrances (with Itzhak Perlman)DR12 -11.82 dB -28.29 dB 2:59 14-Theme From Schindler's List (Reprise)--------------------------------------------------------------------------------

Number of tracks: 14Official DR value: DR13

Samplerate: 44100 HzChannels: 2Bits per sample: 16Bitrate: 615 kbpsCodec: FLAC================================================================================


Трекер:  [ 02-Дек-2011 19:10 ]

  

Скачать .torrent

Размер .torrent файла 14 KB


Размер: 338 MB
Хэш (hash) релиза: f6614eed51c07eeba111cb83df0c36dae786515b

Еще никто не оставлял запись к записи скачать торрент Список Шиндлера Schindlers List . Будь первым!

!Обратная связь