Скачать через торрент музыку Конго Congo бесплатно без регистрации torrent

Если у вас наблюдаются проблемы со скриншотами, переходом по ссылками, скачиванием торрентов - проблемы в блокировщике рекламы AdBlock. #хорошегоДня!


Статистика раздачи
Размер:  184 MB   |    Зарегистрирован:  5 лет 9 месяцев   |    .torrent скачан:  32 раза   |   
Раздают:  1  
   
Загрузка...
 
Автор Сообщение

Galfimbul

avatar Galfimbul


Конго / Congo

Жанр: Score
Композитор: Jerry Goldsmith
Год выпуска диска: 1995
Страна-производитель диска: США
Издатель (лейбл): Film Score Monthly
Номер по каталогу: FSMCD Vol. 6, No. 19
Аудиокодек: FLAC
Тип рипа: tracks+.cue
Битрейт аудио: lossless
Продолжительность: 33:37
Источник: what.cd
Наличие сканов в содержимом раздачи: да

Трэклист:
01. Spirit Of Africa (02:42)
02. Bail Out (02:59)
03. No Customs (01:49)
04. Deep Jungle (02:34)
05. Hippo Attack (02:27)
06. Crash Site (02:00)
07. Gates Of Zinj (04:03)
08. Amy's Nightmare (02:12)
09. Kahega (02:19)
10. Amy's Farewell / Spirit Of Africa (10:28)
 
Exact Audio Copy V0.99 prebeta 4 from 23. January 2008

EAC extraction logfile from 8. June 2008, 0:57

Jerry Goldsmith / Congo

Used drive : TSSTcorpDVD-ROM TS-H352C Adapter: 1 ID: 1

Read mode : SecureUtilize accurate stream : YesDefeat audio cache : YesMake use of C2 pointers : No

Read offset correction : 6Overread into Lead-In and Lead-Out : NoFill up missing offset samples with silence : YesDelete leading and trailing silent blocks : NoNull samples used in CRC calculations : YesUsed interface : Installed external ASPI interfaceGap handling : Appended to previous track

Used output format : User Defined EncoderSelected bitrate : 192 kBit/sQuality : HighAdd ID3 tag : NoCommand line compressor : C:\Program Files\TotalAudioConverter\flac.exeAdditional command line options : -8 -A tukey(0.25) -A gauss(0.1875) -b 4096 -V -T "artist=%a" -T "title=%t" -T "album=%g" -T "date=%y" -T "tracknumber=%n" -T "genre=%m" %s --sector-align

TOC of the extracted CD

Track | Start | Length | Start sector | End sector --------------------------------------------------------- 1 | 0:00.00 | 2:42.22 | 0 | 12171 2 | 2:42.22 | 2:59.30 | 12172 | 25626 3 | 5:41.52 | 1:49.63 | 25627 | 33864 4 | 7:31.40 | 2:34.50 | 33865 | 45464 5 | 10:06.15 | 2:27.20 | 45465 | 56509 6 | 12:33.35 | 2:00.40 | 56510 | 65549 7 | 14:34.00 | 4:03.17 | 65550 | 83791 8 | 18:37.17 | 2:12.00 | 83792 | 93691 9 | 20:49.17 | 2:19.15 | 93692 | 104131 10 | 23:08.32 | 10:28.55 | 104132 | 151286

Track 1

Filename N:\Music\Congo\01 - Spirit of Africa.wav

Pre-gap length 0:00:02.00

Peak level 94.2 % Track quality 100.0 % Test CRC 834EC901 Copy CRC 834EC901 Copy OK

Track 2

Filename N:\Music\Congo\02 - Bail Out.wav

Pre-gap length 0:00:01.70

Peak level 98.9 % Track quality 100.0 % Test CRC A86DF700 Copy CRC A86DF700 Copy OK

Track 3

Filename N:\Music\Congo\03 - No Customs.wav

Pre-gap length 0:00:01.88

Peak level 23.8 % Track quality 100.0 % Test CRC 96D87D34 Copy CRC 96D87D34 Copy OK

Track 4

Filename N:\Music\Congo\04 - Deep Jungle.wav

Pre-gap length 0:00:01.20

Peak level 99.0 % Track quality 100.0 % Test CRC 2BA8A483 Copy CRC 2BA8A483 Copy OK

Track 5

Filename N:\Music\Congo\05 - Hippo Attack.wav

Peak level 97.1 % Track quality 100.0 % Test CRC FD9F570A Copy CRC FD9F570A Copy OK

Track 6

Filename N:\Music\Congo\06 - Crash Site.wav

Pre-gap length 0:00:01.37

Peak level 98.8 % Track quality 99.9 % Test CRC A061AE54 Copy CRC A061AE54 Copy OK

Track 7

Filename N:\Music\Congo\07 - Gates of Zinj.wav

Pre-gap length 0:00:01.37

Peak level 91.6 % Track quality 100.0 % Test CRC FF92D41D Copy CRC FF92D41D Copy OK

Track 8

Filename N:\Music\Congo\08 - Amy's Nightmare.wav

Pre-gap length 0:00:01.13

Peak level 97.6 % Track quality 100.0 % Test CRC 47742751 Copy CRC 47742751 Copy OK

Track 9

Filename N:\Music\Congo\09 - Kathega.wav

Pre-gap length 0:00:01.09

Peak level 90.4 % Track quality 100.0 % Test CRC 5A3721E7 Copy CRC 5A3721E7 Copy OK

Track 10

Filename N:\Music\Congo\10 - Amy's Farewell , Spirit of Africa.wav

Pre-gap length 0:00:01.68

Peak level 98.9 % Track quality 100.0 % Test CRC 9EDBB3BE Copy CRC 9EDBB3BE Copy OK

No errors occurred

End of status report
 
REM GENRE SoundtrackREM DATE 1995REM DISCID 7907E10AREM COMMENT "ExactAudioCopy v0.99pb4"PERFORMER "Jerry Goldsmith"TITLE "Congo"FILE "01 - Spirit of Africa.wav" WAVE TRACK 01 AUDIO TITLE "Spirit of Africa" PERFORMER "Jerry Goldsmith" INDEX 01 00:00:00 TRACK 02 AUDIO TITLE "Bail Out" PERFORMER "Jerry Goldsmith" INDEX 00 02:40:44FILE "02 - Bail Out.wav" WAVE INDEX 01 00:00:00 TRACK 03 AUDIO TITLE "No Customs" PERFORMER "Jerry Goldsmith" INDEX 00 02:57:39FILE "03 - No Customs.wav" WAVE INDEX 01 00:00:00 TRACK 04 AUDIO TITLE "Deep Jungle" PERFORMER "Jerry Goldsmith" INDEX 00 01:48:48FILE "04 - Deep Jungle.wav" WAVE INDEX 01 00:00:00FILE "05 - Hippo Attack.wav" WAVE TRACK 05 AUDIO TITLE "Hippo Attack" PERFORMER "Jerry Goldsmith" INDEX 01 00:00:00 TRACK 06 AUDIO TITLE "Crash Site" PERFORMER "Jerry Goldsmith" INDEX 00 02:25:67FILE "06 - Crash Site.wav" WAVE INDEX 01 00:00:00 TRACK 07 AUDIO TITLE "Gates of Zinj" PERFORMER "Jerry Goldsmith" INDEX 00 01:59:12FILE "07 - Gates of Zinj.wav" WAVE INDEX 01 00:00:00 TRACK 08 AUDIO TITLE "Amy's Nightmare" PERFORMER "Jerry Goldsmith" INDEX 00 04:02:07FILE "08 - Amy's Nightmare.wav" WAVE INDEX 01 00:00:00 TRACK 09 AUDIO TITLE "Kathega" PERFORMER "Jerry Goldsmith" INDEX 00 02:10:68FILE "09 - Kathega.wav" WAVE INDEX 01 00:00:00 TRACK 10 AUDIO TITLE "Amy's Farewell / Spirit of Africa" PERFORMER "Jerry Goldsmith" INDEX 00 02:17:39FILE "10 - Amy's Farewell , Spirit of Africa.wav" WAVE INDEX 01 00:00:00
 
Started at: понедельник, 28. 11. 2011. - 2:55.33

10 files found

01 -===- C:\!_TORRENT\Jerry Goldsmith - Congo (1995) [FLAC]\01 - Spirit of Africa.flac Extracted successfully Conclusion: This track looks like CDDA with probability 100% Tempfile successfully deleted.

02 -===- C:\!_TORRENT\Jerry Goldsmith - Congo (1995) [FLAC]\02 - Bail Out.flac Extracted successfully Conclusion: This track looks like CDDA with probability 100% Tempfile successfully deleted.

03 -===- C:\!_TORRENT\Jerry Goldsmith - Congo (1995) [FLAC]\03 - No Customs.flac Extracted successfully Conclusion: This track looks like CDDA with probability 100% Tempfile successfully deleted.

04 -===- C:\!_TORRENT\Jerry Goldsmith - Congo (1995) [FLAC]\04 - Deep Jungle.flac Extracted successfully Conclusion: This track looks like CDDA with probability 99% Tempfile successfully deleted.

05 -===- C:\!_TORRENT\Jerry Goldsmith - Congo (1995) [FLAC]\05 - Hippo Attack.flac Extracted successfully Conclusion: This track looks like CDDA with probability 99% Tempfile successfully deleted.

06 -===- C:\!_TORRENT\Jerry Goldsmith - Congo (1995) [FLAC]\06 - Crash Site.flac Extracted successfully Conclusion: This track looks like CDDA with probability 100% Tempfile successfully deleted.

07 -===- C:\!_TORRENT\Jerry Goldsmith - Congo (1995) [FLAC]\07 - Gates of Zinj.flac Extracted successfully Conclusion: This track looks like CDDA with probability 100% Tempfile successfully deleted.

08 -===- C:\!_TORRENT\Jerry Goldsmith - Congo (1995) [FLAC]\08 - Amy's Nightmare.flac Extracted successfully Conclusion: This track looks like CDDA with probability 100% Tempfile successfully deleted.

09 -===- C:\!_TORRENT\Jerry Goldsmith - Congo (1995) [FLAC]\09 - Kathega.flac Extracted successfully Conclusion: This track looks like CDDA with probability 100% Tempfile successfully deleted.

10 -===- C:\!_TORRENT\Jerry Goldsmith - Congo (1995) [FLAC]\10 - Amy's Farewell , Spirit of Africa.flac Extracted successfully Conclusion: This track looks like CDDA with probability 100% Tempfile successfully deleted.

Finished at: понедельник, 28. 11. 2011. - 2:59.02 (operation time: 0:03.29)


Трекер:  [ 02-Дек-2011 19:12 ]

  

Скачать .torrent

Размер .torrent файла 15 KB


Размер: 184 MB
Хэш (hash) релиза: 544a0f495d4fff33a104f63d727cfdfafc9dbcdc

Еще никто не оставлял запись к записи скачать торрент Конго Congo . Будь первым!

!Обратная связь