Скачать через торрент музыку Носферату: Призрак ночи Nosferatu: Phantom Der Nacht бесплатно без регистрации torrent

Если у вас наблюдаются проблемы со скриншотами, переходом по ссылками, скачиванием торрентов - проблемы в блокировщике рекламы AdBlock. #хорошегоДня!


Статистика раздачи
Размер:  355 MB   |    Зарегистрирован:  5 лет 9 месяцев   |    .torrent скачан:  37 раз   |   
Раздают:  1  
   
Загрузка...
 
Автор Сообщение

Galfimbul

avatar Galfimbul


Носферату: Призрак ночи / Nosferatu: Phantom Der Nacht
Жанр: Score
Композитор: Popol Vuh
Год выпуска диска: 2004
Год выпуска фильма: 1978
Страна-производитель диска: Германия
Издатель (лейбл): SPV
Номер по каталогу: 085-70192CD

Аудиокодек: FLAC (*.flac)
Тип рипа: tracks+.cue
Битрейт аудио: lossless
Продолжительность: 01:05:33

Источник: lztr.us
Наличие сканов в содержимом раздачи: да

Доп. информация: Великолепный саундтрек Флориана Фрике (Florian Fricke) к знаменитому фильму Вернера Херцога (Werner Herzog) 1978 года.
01 Bruder Des Schattens (5:44)
02 Hore, Der Du Wagst (6:00)
03 Das Schloss Der Irrtums (5:38)
04 Die Umkehr (5:58)
05 Mantra 1 (6:15)
06 Morning Sun (3:21)
07 Venus Principle (4:42)
08 Mantra 2 (5:23)
09 Die Nachte Der Himmel (5:03)
10 Der Ruf Der Rohrflote (3:39)
11 To A Little Way (2:34)
12 Through Pain To Heaven (3:47)
13 On The Way (4:05)
14 Zwiesprache Der Rohrflote (3:23)

 
EAC extraction logfile from 26. August 2007, 22:39 for CDPopol Vuh / Nosferatu

Used drive : HL-DT-STDVD-ROM GDR8163B Adapter: 0 ID: 0Read mode : Secure with NO C2, accurate stream, disable cacheRead offset correction : 48Overread into Lead-In and Lead-Out : No

Used output format : C:\Archivos de programa\FLAC\flac.exe (User Defined Encoder) 128 kBit/s Additional command line options : -8 -V -T "ARTIST=%a" -T "TITLE=%t" -T "ALBUM=%g" -T "DATE=%y" -T "TRACKNUMBER=%n" -T "GENRE=%m" -T "COMMENT=EAC Flac 1.1.4 -8" %s

Other options : Fill up missing offset samples with silence : Yes Delete leading and trailing silent blocks : No Native Win32 interface for Win NT & 2000

Track 1 Filename G:\Popol Vuh - Nosferatu [FLAC] (1978)\disc\01 - Bruder des Schattens.wav

Pre-gap length 0:00:02.00

Peak level 73.2 % Track quality 100.0 % Test CRC 03ABFB8D Copy CRC 03ABFB8D Copy OK

Track 2 Filename G:\Popol Vuh - Nosferatu [FLAC] (1978)\disc\02 - Hore der du wagst.wav

Pre-gap length 0:00:02.00

Peak level 70.8 % Track quality 100.0 % Test CRC 79DAB878 Copy CRC 79DAB878 Copy OK

Track 3 Filename G:\Popol Vuh - Nosferatu [FLAC] (1978)\disc\03 - Der Schloss der Irrtums.wav

Pre-gap length 0:00:02.00

Peak level 88.2 % Track quality 100.0 % Test CRC D98239CD Copy CRC D98239CD Copy OK

Track 4 Filename G:\Popol Vuh - Nosferatu [FLAC] (1978)\disc\04 - Die Umkehr.wav

Pre-gap length 0:00:02.00

Peak level 88.3 % Track quality 100.0 % Test CRC DB7817BA Copy CRC DB7817BA Copy OK

Track 5 Filename G:\Popol Vuh - Nosferatu [FLAC] (1978)\disc\05 - Mantra 1.wav

Pre-gap length 0:00:02.00

Peak level 88.0 % Track quality 100.0 % Test CRC 94087BBC Copy CRC 94087BBC Copy OK

Track 6 Filename G:\Popol Vuh - Nosferatu [FLAC] (1978)\disc\06 - Morning Sun.wav

Pre-gap length 0:00:02.00

Peak level 88.3 % Track quality 100.0 % Test CRC 0D514694 Copy CRC 0D514694 Copy OK

Track 7 Filename G:\Popol Vuh - Nosferatu [FLAC] (1978)\disc\07 - Venus Principle.wav

Pre-gap length 0:00:02.00

Peak level 88.2 % Track quality 100.0 % Test CRC A45BB456 Copy CRC A45BB456 Copy OK

Track 8 Filename G:\Popol Vuh - Nosferatu [FLAC] (1978)\disc\08 - Mantra 2.wav

Pre-gap length 0:00:02.00

Peak level 87.6 % Track quality 100.0 % Test CRC 49B7A8EC Copy CRC 49B7A8EC Copy OK

Track 9 Filename G:\Popol Vuh - Nosferatu [FLAC] (1978)\disc\09 - Die Nachte der Himmel.wav

Pre-gap length 0:00:02.00

Peak level 54.6 % Track quality 99.9 % Test CRC 5CEE98F2 Copy CRC 5CEE98F2 Copy OK

Track 10 Filename G:\Popol Vuh - Nosferatu [FLAC] (1978)\disc\10 - Der Ruf der Rohrflote.wav

Pre-gap length 0:00:02.00

Peak level 47.7 % Track quality 99.9 % Test CRC 6C65BAA6 Copy CRC 6C65BAA6 Copy OK

Track 11 Filename G:\Popol Vuh - Nosferatu [FLAC] (1978)\disc\11 - To a Little Way.wav

Pre-gap length 0:00:02.00

Peak level 61.7 % Track quality 100.0 % Test CRC 6E8FD03E Copy CRC 6E8FD03E Copy OK

Track 12 Filename G:\Popol Vuh - Nosferatu [FLAC] (1978)\disc\12 - Through Pain to Heaven.wav

Pre-gap length 0:00:02.00

Peak level 81.6 % Track quality 100.0 % Test CRC 8E650809 Copy CRC 8E650809 Copy OK

Track 13 Filename G:\Popol Vuh - Nosferatu [FLAC] (1978)\disc\13 - On the Way.wav

Pre-gap length 0:00:02.00

Peak level 50.5 % Track quality 100.0 % Test CRC 90586D17 Copy CRC 90586D17 Copy OK

Track 14 Filename G:\Popol Vuh - Nosferatu [FLAC] (1978)\disc\14 - Zwiesprache der Rohrflote.wav

Pre-gap length 0:00:02.00

Peak level 77.7 % Track quality 100.0 % Test CRC 8015CE99 Copy CRC 8015CE99 Copy OK

No errors occured

End of status report
 
REM GENRE SoundtrackREM DATE 1978REM DISCID C70F5D0EREM COMMENT "ExactAudioCopy v0.95b4"PERFORMER "Popol Vuh"TITLE "Nosferatu"FILE "01 Bruder Des Schattens.wav" WAVE TRACK 01 AUDIO TITLE "Bruder Des Schattens" PERFORMER "Popol Vuh" FLAGS DCP INDEX 01 00:00:00 TRACK 02 AUDIO TITLE "Hore, Der Du Wagst" PERFORMER "Popol Vuh" FLAGS DCP INDEX 00 05:41:63FILE "02 Hore, Der Du Wagst.wav" WAVE INDEX 01 00:00:00 TRACK 03 AUDIO TITLE "Das Schloss Der Irrtums" PERFORMER "Popol Vuh" FLAGS DCP INDEX 00 05:58:25FILE "03 Das Schloss Der Irrtums.wav" WAVE INDEX 01 00:00:00 TRACK 04 AUDIO TITLE "Die Umkehr" PERFORMER "Popol Vuh" FLAGS DCP INDEX 00 05:35:56FILE "04 Die Umkehr.wav" WAVE INDEX 01 00:00:00 TRACK 05 AUDIO TITLE "Mantra 1" PERFORMER "Popol Vuh" FLAGS DCP INDEX 00 05:56:09FILE "05 Mantra 1.wav" WAVE INDEX 01 00:00:00 TRACK 06 AUDIO TITLE "Morning Sun" PERFORMER "Popol Vuh" FLAGS DCP INDEX 00 06:13:23FILE "06 Morning Sun.wav" WAVE INDEX 01 00:00:00 TRACK 07 AUDIO TITLE "Venus Principle" PERFORMER "Popol Vuh" FLAGS DCP INDEX 00 03:19:10FILE "07 Venus Principle.wav" WAVE INDEX 01 00:00:00 TRACK 08 AUDIO TITLE "Mantra 2" PERFORMER "Popol Vuh" FLAGS DCP INDEX 00 04:39:62FILE "08 Mantra 2.wav" WAVE INDEX 01 00:00:00 TRACK 09 AUDIO TITLE "Die Nachte Der Himmel" PERFORMER "Popol Vuh" FLAGS DCP INDEX 00 05:20:60FILE "09 Die Nachte Der Himmel.wav" WAVE INDEX 01 00:00:00 TRACK 10 AUDIO TITLE "Der Ruf Der Rohrflote" PERFORMER "Popol Vuh" FLAGS DCP INDEX 00 05:01:35FILE "10 Der Ruf Der Rohrflote.wav" WAVE INDEX 01 00:00:00 TRACK 11 AUDIO TITLE "To A Little Way" PERFORMER "Popol Vuh" FLAGS DCP INDEX 00 03:37:35FILE "11 To A Little Way.wav" WAVE INDEX 01 00:00:00 TRACK 12 AUDIO TITLE "Through Pain To Heaven" PERFORMER "Popol Vuh" FLAGS DCP INDEX 00 02:32:00FILE "12 Through Pain To Heaven.wav" WAVE INDEX 01 00:00:00 TRACK 13 AUDIO TITLE "On The Way" PERFORMER "Popol Vuh" FLAGS DCP INDEX 00 03:45:25FILE "13 On The Way.wav" WAVE INDEX 01 00:00:00 TRACK 14 AUDIO TITLE "Zwiesprache Der Rohrflote" PERFORMER "Popol Vuh" FLAGS DCP INDEX 00 04:03:12FILE "14 Zwiesprache Der Rohrflote.wav" WAVE INDEX 01 00:00:00


Трекер:  [ 02-Дек-2011 19:12 ]

  

Скачать .torrent

Размер .torrent файла 16 KB


Размер: 355 MB
Хэш (hash) релиза: 92282a5cc38647baf4be53bb07f6b8cc2a094193

Еще никто не оставлял запись к записи скачать торрент Носферату: Призрак ночи Nosferatu: Phantom Der Nacht . Будь первым!

!Обратная связь