Скачать через торрент музыку Последний отблеск сумерек Twilights Last Gleaming бесплатно без регистрации torrent

Если у вас наблюдаются проблемы со скриншотами, переходом по ссылками, скачиванием торрентов - проблемы в блокировщике рекламы AdBlock. #хорошегоДня!


Статистика раздачи
Размер:  195 MB   |    Зарегистрирован:  5 лет 9 месяцев   |    .torrent скачан:  27 раз   |   
Раздают:  1  
   
Загрузка...
 
Автор Сообщение

Galfimbul

avatar Galfimbul


Последний отблеск сумерек / Twilight's Last Gleaming

Жанр: Score
Композитор: Jerry Goldsmith
Год выпуска диска: 1992
Год выпуска фильма: 1977
Страна-производитель диска: Великобритания
Издатель (лейбл): Silva Screen
Номер по каталогу: FILMCD 111
Аудиокодек: APE (*.ape)
Тип рипа: image+.cue
Битрейт аудио: lossless
Продолжительность: 38:33
Источник: emule
Наличие сканов в содержимом раздачи: да

Треклист:
01. Silo 3 / The Takeover (3:34)
02. General McKenzie Arrives (1:11)
03. "He Has Launch Control" / Special Forces Arrive (3:41)
04. The Bubble (2:57)
05. Nuclear Nightmare (3:15)
06. A Reflective Interlude (1:26)
07. "After You Mr President" / Heading for Home / The President Falls (2:34)
08. The Taking of Silo 3 (3:27)
09. Operation Gold Begins / Watching and Waiting (3:17)
10. The Tanks (3:40)
11. Down the Elevator Shaft / The Gold Bomb (2:14)
12. Gold Team Enters Silo 3 (4:56)
13. The Final Betrayal (1:58)
 
EAC extraction logfile from 31. January 2006, 12:12 for CDJerry Goldsmith / Twilight's Last Gleaming

Used drive : PIONEER DVD-RW DVR-108 Adapter: 2 ID: 0Read mode : Secure with NO C2, accurate stream, disable cacheRead offset correction : 0Overread into Lead-In and Lead-Out : No

Used output format : Internal WAV Routines 44.100 Hz; 16 Bit; Stereo

Other options : Fill up missing offset samples with silence : Yes Delete leading and trailing silent blocks : No Installed external ASPI interface

Range status and errorsSelected range Filename E:\HQ Releases\Jerry Goldsmith - Twilight's Last Gleaming\Listen\Jerry Goldsmith - Twilight's Last Gleaming.wav

Peak level 80.9 % Range quality 100.0 % CRC 50D7CE5B Copy OK

No errors occured

End of status report
 
REM DATE 1977REM GENRE SoundtrackREM DISCID B209090DREM COMMENT "ExactAudioCopy v0.95b3"PERFORMER "Jerry Goldsmith"TITLE "Twilight's Last Gleaming"FILE "Jerry Goldsmith - Twilight's Last Gleaming.ape" WAVE TRACK 01 AUDIO TITLE "Silo 3 - The Takeover" PERFORMER "Jerry Goldsmith" INDEX 00 00:00:00 INDEX 01 00:00:33 TRACK 02 AUDIO TITLE "General McKenzie Arrives" PERFORMER "Jerry Goldsmith" INDEX 00 03:35:28 INDEX 01 03:36:63 TRACK 03 AUDIO TITLE "He Has Launch Control - Special Forces Arrive" PERFORMER "Jerry Goldsmith" INDEX 00 04:48:20 INDEX 01 04:49:68 TRACK 04 AUDIO TITLE "The Bubble" PERFORMER "Jerry Goldsmith" INDEX 00 08:30:73 INDEX 01 08:31:33 TRACK 05 AUDIO TITLE "Nuclear Nightmare" PERFORMER "Jerry Goldsmith" INDEX 00 11:29:25 INDEX 01 11:31:35 TRACK 06 AUDIO TITLE "A Reflective Interlude6" PERFORMER "Jerry Goldsmith" INDEX 00 14:47:10 INDEX 01 14:48:48 TRACK 07 AUDIO TITLE "After You Mr President - Heading for Home - The President Falls" PERFORMER "Jerry Goldsmith" INDEX 00 16:15:30 INDEX 01 16:16:68 TRACK 08 AUDIO TITLE "The Taking of Silo 3" PERFORMER "Jerry Goldsmith" INDEX 00 18:51:53 INDEX 01 18:53:08 TRACK 09 AUDIO TITLE "Operation Gold Begins - Watching and Waiting" PERFORMER "Jerry Goldsmith" INDEX 00 22:20:63 INDEX 01 22:22:35 TRACK 10 AUDIO TITLE "The Tanks" PERFORMER "Jerry Goldsmith" INDEX 00 25:39:55 INDEX 01 25:41:33 TRACK 11 AUDIO TITLE "Down the Elevator Shaft / The Gold Bomb" PERFORMER "Jerry Goldsmith" INDEX 00 29:22:05 INDEX 01 29:23:18 TRACK 12 AUDIO TITLE "Gold Team Enters Silo 3" PERFORMER "Jerry Goldsmith" INDEX 00 31:38:08 INDEX 01 31:39:28 TRACK 13 AUDIO TITLE "The Final Betrayal" PERFORMER "Jerry Goldsmith" INDEX 00 36:36:20 INDEX 01 36:36:58
 
Started at: воскресенье, 27. 11. 2011. - 2:21.20

1 file found

1 -===- C:\!_TORRENT\Jerry Goldsmith - Twilight's Last Gleaming (1992) [APE]\Jerry Goldsmith - Twilight's Last Gleaming.ape Extracted successfully Conclusion: This track looks like CDDA with probability 100% Tempfile successfully deleted.

Finished at: воскресенье, 27. 11. 2011. - 2:25.52 (operation time: 0:04.32)


Трекер:  [ 02-Дек-2011 19:14 ]

  

Скачать .torrent

Размер .torrent файла 16 KB


Размер: 195 MB
Хэш (hash) релиза: cb7bb6b63c173e5bfb56a367350940123417f8c8

Еще никто не оставлял запись к записи скачать торрент Последний отблеск сумерек Twilights Last Gleaming . Будь первым!

!Обратная связь