Скачать через торрент Deus Ex: Human Revolution Bonus Disc Игра для ПК (PC) бесплатно torrent

Если у вас наблюдаются проблемы со скриншотами, переходом по ссылками, скачиванием торрентов - проблемы в блокировщике рекламы AdBlock. #хорошегоДня!


Статистика раздачи
Размер:  4.11 GB   |    Зарегистрирован:  5 лет 8 месяцев   |    .torrent скачан:  253 раза   |   
Раздают:  1  
   
Загрузка...
 
Автор Сообщение

Schweppes



Год выпуска: 2011
Разработчик: Eidos Interactive
Издательство: Square Enix
Язык интерфейса:
Язык озвучки:
Эксклюзивный бонусный DVD включает в себя:
  • 44-минутное видео c разработчиками о создании игры
  • Официальный Саундтрек
  • Видеокомикс
  • Трейлеры
  • Анимированная раскадровка
Идентификатор : 224 (0xE0)
Формат : MPEG Video
Версия формата : Version 2
Профиль формата : Main@Main
Параметр BVOP формата : Да
Параметр матрицы формата : Выборочная
Параметр GOP формата : M=3, N=12
Вид битрейта : Переменный
Битрейт : 840 Мбит/сек
Максимальный битрейт : 7500 Кбит/сек
Ширина : 720 пикселей
Высота : 576 пикселей
Соотношение сторон : 16:9
Частота кадров : 25,000 кадров/сек
Стандарт вещания : PAL
Цветовое пространство : YUV
Субдискретизация насыщенности : 4:2:0
Битовая глубина : 8 бит
Тип развёртки : Прогрессивная
Метод сжатия : С потерями
Бит/(Пиксели*Кадры) : 81.065
Размер потока : 958 Мбайт (98%)
Идентификатор : 224 (0xE0)
Формат : MPEG Video
Версия формата : Version 2
Профиль формата : Main@Main
Параметр BVOP формата : Да
Параметр матрицы формата : Выборочная
Параметр GOP формата : M=3, N=12
Вид битрейта : Переменный
Битрейт : 840 Мбит/сек
Максимальный битрейт : 7500 Кбит/сек
Ширина : 720 пикселей
Высота : 576 пикселей
Соотношение сторон : 16:9
Частота кадров : 25,000 кадров/сек
Стандарт вещания : PAL
Цветовое пространство : YUV
Субдискретизация насыщенности : 4:2:0
Битовая глубина : 8 бит
Тип развёртки : Прогрессивная
Метод сжатия : С потерями
Бит/(Пиксели*Кадры) : 81.065
Размер потока : 958 Мбайт (98%)
Текст #1
Идентификатор : 189 (0xBD)-32 (0x20)
Формат : RLE
Формат/Информация : Run-length encoding
Режим смешивания : DVD-Video
Задержка видео : 5 с. 280 мс.


Трекер:  [ 25-Ноя-2011 14:01 ]

  

Скачать .torrent

Размер .torrent файла 11 KB


Размер: 4.11 GB
Хэш (hash) релиза: 4fe109b33f6881430658f3e55255df9b0934518e
Подписка на обновления:

Еще никто не оставлял запись к записи скачать торрент Deus Ex: Human Revolution Bonus Disc . Будь первым!

!Обратная связь