Скачать через торрент музыку Twelve Girls Band бесплатно без регистрации torrent

Если у вас наблюдаются проблемы со скриншотами, переходом по ссылками, скачиванием торрентов - проблемы в блокировщике рекламы AdBlock. #хорошегоДня!


Статистика раздачи
Размер:  2.47 GB   |    Зарегистрирован:  5 лет 10 месяцев   |    .torrent скачан:  43 раза   |   
Раздают:  1  
   
Загрузка...
 
Автор Сообщение

Galfimbul

avatar Galfimbul


Twelve Girls Band - Beautiful Energy



Страна: Japan
Жанр: Instrumental, Folk, World & Country
Продолжительность: 25:06
Год выпуска: 2003

Описание: 12Girls Band исполняют традиционную китайскую классику в современном стиле, с использованием традиционных китайских инструментов. DVD включает в себя клипы и концертные выступления, а также, короткие интервью с участницами.



Разбивка на главы по трекам: есть
Качество : DVD5
Формат: DVD video
Видео кодек: MPEG2
Аудио кодек: PCM
Видео: MPEG2 Video 720x480 (4:3) 29.97fps 8250 Kbps
Аудио: PCM 48000Hz stereo 1536Kbps

01. Miracle (Live)
02. Freedom (Clip)
03. New Classicalism (Live)
04. Alamuhan (Live)
05. Victoria's Smile (Live)

DVD extras:

Интервью с участницами коллектива
Erhu, Guqin – Yan Yin (Ann)
Erhu, Jinghu, Gaohu – Jin Jiang (Jenny)
Erhu, Strings [Du Xian Qin], Wind [Ba Wu], Instruments – Ying Lei (Stephanie)
Gaohu, Erhu – Ting Sung (Tina)
Gaohu, Erhu, Ruan [Zhong] – Lijun Zhan (Janet)
Guzheng, Guqin, Ruan [Zhong] – Jiannan Zhou (Vivien)
Guzheng, Yangqin, Percussion – Jingjing Ma (Jeannie)
Performer – Binqu Liao (Nancy), Yuan Sun (Stella)
Pipa, Ruan [Zhong] – Bao Zhong (Bobo), Kun Zhang (Zena), Shuang Zhang (Gabel)
Yangqin, Ruan [Zhong] – Songmei Yang (Maggie)

 
Title:Size: 2.47 Gb ( 2 593 000 KBytes ) - DVD-5Enabled regions: 1, 2, 3, 4, 5, 6, 7, 8

VTS_01 : Play Length: 00:03:33+00:03:10+00:06:43+00:00:46+00:00:42+00:00:44+00:01:00+00:01:40+00:01:10+00:00:38+00:00:47+00:00:50+00:01:02+00:00:54+00:00:41+00:10:58+00:00:14 Video: NTSC 4:3 (720x480) VBR Audio: Not specified (LinearPCM, 2 ch)

Menu Video: NTSC 4:3 (720x480) VBR Auto Pan&Scan, Auto LetterboxedMenu Language Unit : Chapter (PTT) Menu
 
VTS_01_2.VOBFormat : MPEG-PSFile size : 1 024 MiBDuration : 4mn 12sOverall bit rate : 34.1 Mbps

VideoID : 224 (0xE0)Format : MPEG VideoFormat version : Version 2Format profile : Main@MainFormat settings, BVOP : YesFormat settings, Matrix : DefaultFormat settings, GOP : M=3, N=16Duration : 4mn 11sBit rate : 31.8 MbpsMaximum bit rate : 8 200 KbpsWidth : 720 pixelsHeight : 480 pixelsDisplay aspect ratio : 4:3Frame rate : 29.970 fpsStandard : NTSCColor space : YUVChroma subsampling : 4:2:0Bit depth : 8 bitsScan type : InterlacedScan order : Top Field FirstCompression mode : LossyBits/(Pixel*Frame) : 3.075Stream size : 956 MiB (93%)

AudioID : 189 (0xBD)-160 (0xA0)Format : PCMFormat settings, Endianness : BigFormat settings, Sign : SignedMuxing mode : DVD-VideoDuration : 4mn 12sBit rate mode : ConstantBit rate : 1 536 KbpsChannel(s) : 2 channelsChannel positions : Front: L RSampling rate : 48.0 KHzBit depth : 16 bitsDelay relative to video : -437msStream size : 46.2 MiB (5%)

Menu



Трекер:  [ 16-Ноя-2011 10:42 ]

  

Скачать .torrent

Размер .torrent файла 13 KB


Размер: 2.47 GB
Хэш (hash) релиза: 312ba54942a2b2cc75465fc291930bb564bd4a0a

Еще никто не оставлял запись к записи скачать торрент Twelve Girls Band . Будь первым!

!Обратная связь