Скачать через торрент музыку Доктор Живаго Doctor Zhivago бесплатно без регистрации torrent

Если у вас наблюдаются проблемы со скриншотами, переходом по ссылками, скачиванием торрентов - проблемы в блокировщике рекламы AdBlock. #хорошегоДня!


Статистика раздачи
Размер:  520 MB   |    Зарегистрирован:  6 лет   |    .torrent скачан:  39 раз   |   
Раздают:  1  
   
Загрузка...
 
Автор Сообщение

Galfimbul

avatar Galfimbul


Доктор Живаго | Doctor ZhivagoThe Deluxe Thirtieth Anniversary Edition
Жанр: Score
Композитор: Maurice Jarre
Год выпуска диска: 1995
Год выпуска фильма: 1965
Страна-производитель диска: USA
Издатель (лейбл): Rhino
Номер по каталогу: R2 71957
Аудиокодек: FLAC (*.flac)
Тип рипа: tracks+.cue
Битрейт аудио: lossless
Продолжительность: 01:07:45
Источник: собственный рип
Наличие сканов в содержимом раздачи: да
 
1. Overture (02:24)2. Main Title (02:41)3. Kontakion/Funeral Song (03:17)4. Lara Is Charming (01:15)5. The Internationale (01:11)6. Lara And Komarovsky Dancing Up A Storm (00:43)7. Komarovsky And Lara In The Hotel (03:54)8. Interior Student Cafй (outtake) (01:36)9. Sventitsky's Waltz/After The Shooting (02:18)10. Military Parade (02:10)11. They Began To Go Home (02:05)12. After Deserters Killed The Colonel (01:04)13. At The Hospital (00:58)14. Lara Says Goodbye To Yuri (01:28)15. Tonya Greets Yuri (outtake) (00:44)16. The Stove's Out (outtake) (01:29)17. Yevgrav Snaps His Fingers (outtake) (03:11)18. Evening Bells/Moscow Station (01:03)19. Flags Flying Over The Train (01:06)20. Yuri Gazing Through A Tiny Open Hatch (outtake) (00:36)21. The Door Is Banged Open (01:51)22. Intermission (00:45)23. Yuri Follows The Sound Of The Waterfall (00:43)24. Tonya And Yuri Arrive At Varykino (02:54)25. They Didn't Lock The Cottage (01:34)26. Varykino Cottage, Winter Snow (00:56)27. Yuri And The Daffodils (01:17)28. On A Yuriatin Street (01:34)29. In Lara's Bedroom (00:32)30. Yuri Rides To Yuriatin (00:23)31. Yuri Is Taken Prisoner By The Red Partisans (00:48)32. For As Long As We Need You (00:41)33. Yuri Is Escaping (02:19)34. Yuri Approaches Lara's Appartment (00:50)35. Yuri Looks Into The Mirror (00:31)36. Lara And Yuri Arriving At Varykino (01:41)37. Yuri Is Trying To Write (01:21)38. Yuri Frightens The Wolves Away, part 1 (00:48)39. Lara Reads Her Poem (00:39)40. Yuri Frightens The Wolves Away, part 2 (01:54)41. Yuri Works On (outtake) (00:53)42. Then It's A Gift (End Title) (01:46)43. Lara's Theme (01:58) - Jazz Version44. Lara's Theme (02:39) - Rock 'n' Roll Version45. Lara's Theme (01:15) - Swing Version
 
Exact Audio Copy V1.0 beta 3 from 29. August 2011

EAC extraction logfile from 15. November 2011, 16:55

Maurice Jarre / Doctor Zhivago

Used drive : PIONEER BD-RW BDR-205 Adapter: 1 ID: 0

Read mode : SecureUtilize accurate stream : YesDefeat audio cache : YesMake use of C2 pointers : No

Read offset correction : 667Overread into Lead-In and Lead-Out : YesFill up missing offset samples with silence : YesDelete leading and trailing silent blocks : NoNull samples used in CRC calculations : YesUsed interface : Installed external ASPI interfaceGap handling : Appended to previous track

Used output format : User Defined EncoderSelected bitrate : 1024 kBit/sQuality : HighAdd ID3 tag : NoCommand line compressor : C:\Program Files\Exact Audio Copy\Flac\flac.exeAdditional command line options : -V -8 -T "Genre=%genre%" -T "Artist=%artist%" -T "Title=%title%" -T "Album=%albumtitle%" -T "Date=%year%" -T "Tracknumber=%tracknr%" -T "Comment=%comment%" %source%

TOC of the extracted CD

Track | Start | Length | Start sector | End sector --------------------------------------------------------- 1 | 0:00.32 | 4:24.30 | 32 | 19861 2 | 4:24.62 | 2:40.63 | 19862 | 31924 3 | 7:05.50 | 3:16.60 | 31925 | 46684 4 | 10:22.35 | 1:14.67 | 46685 | 52301 5 | 11:37.27 | 1:11.25 | 52302 | 57651 6 | 12:48.52 | 0:42.48 | 57652 | 60849 7 | 13:31.25 | 3:53.62 | 60850 | 78386 8 | 17:25.12 | 1:36.25 | 78387 | 85611 9 | 19:01.37 | 2:17.53 | 85612 | 95939 10 | 21:19.15 | 2:09.70 | 95940 | 105684 11 | 23:29.10 | 2:05.32 | 105685 | 115091 12 | 25:34.42 | 1:04.38 | 115092 | 119929 13 | 26:39.05 | 0:58.35 | 119930 | 124314 14 | 27:37.40 | 1:28.30 | 124315 | 130944 15 | 29:05.70 | 0:44.02 | 130945 | 134246 16 | 29:49.72 | 1:29.15 | 134247 | 140936 17 | 31:19.12 | 3:10.65 | 140937 | 155251 18 | 34:30.02 | 1:02.48 | 155252 | 159949 19 | 35:32.50 | 1:06.27 | 159950 | 164926 20 | 36:39.02 | 0:36.25 | 164927 | 167651 21 | 37:15.27 | 1:50.40 | 167652 | 175941 22 | 39:05.67 | 0:45.15 | 175942 | 179331 23 | 39:51.07 | 0:42.48 | 179332 | 182529 24 | 40:33.55 | 2:53.62 | 182530 | 195566 25 | 43:27.42 | 1:34.05 | 195567 | 202621 26 | 45:01.47 | 0:56.30 | 202622 | 206851 27 | 45:58.02 | 1:16.53 | 206852 | 212604 28 | 47:14.55 | 1:33.52 | 212605 | 219631 29 | 48:48.32 | 0:32.00 | 219632 | 222031 30 | 49:20.32 | 0:23.30 | 222032 | 223786 31 | 49:43.62 | 0:48.33 | 223787 | 227419 32 | 50:32.20 | 0:41.12 | 227420 | 230506 33 | 51:13.32 | 2:19.30 | 230507 | 240961 34 | 53:32.62 | 0:49.40 | 240962 | 244676 35 | 54:22.27 | 0:31.03 | 244677 | 247004 36 | 54:53.30 | 1:40.60 | 247005 | 254564 37 | 56:34.15 | 1:20.67 | 254565 | 260631 38 | 57:55.07 | 0:48.08 | 260632 | 264239 39 | 58:43.15 | 0:38.37 | 264240 | 267126 40 | 59:21.52 | 1:54.03 | 267127 | 275679 41 | 61:15.55 | 0:52.57 | 275680 | 279636 42 | 62:08.37 | 1:46.20 | 279637 | 287606 43 | 63:54.57 | 1:57.40 | 287607 | 296421 44 | 65:52.22 | 2:39.20 | 296422 | 308366 45 | 68:31.42 | 1:15.30 | 308367 | 314021

Track 1

Filename F:\torrent\Doctor Zhivago_Maurice Jarre\score\01 Overture.wav

Pre-gap length 0:00:02.32

Peak level 63.0 % Extraction speed 4.7 X Track quality 100.0 % Test CRC 82A514F5 Copy CRC 82A514F5 Accurately ripped (confidence 9) [6329D0C5] (AR v1) Copy OK

Track 2

Filename F:\torrent\Doctor Zhivago_Maurice Jarre\score\02 Main Title.wav

Peak level 48.5 % Extraction speed 4.7 X Track quality 100.0 % Test CRC BBD3718C Copy CRC BBD3718C Accurately ripped (confidence 9) [EE7B789F] (AR v1) Copy OK

Track 3

Filename F:\torrent\Doctor Zhivago_Maurice Jarre\score\03 Kontakion,Funeral Song.wav

Peak level 82.7 % Extraction speed 5.2 X Track quality 100.0 % Test CRC EF7D7E42 Copy CRC EF7D7E42 Accurately ripped (confidence 9) [E173874F] (AR v1) Copy OK

Track 4

Filename F:\torrent\Doctor Zhivago_Maurice Jarre\score\04 Lara Is Charming.wav

Peak level 63.7 % Extraction speed 4.2 X Track quality 100.0 % Test CRC 9F19944D Copy CRC 9F19944D Accurately ripped (confidence 9) [B5828858] (AR v1) Copy OK

Track 5

Filename F:\torrent\Doctor Zhivago_Maurice Jarre\score\05 The Internationale.wav

Peak level 64.0 % Extraction speed 4.2 X Track quality 100.0 % Test CRC 76C25792 Copy CRC 76C25792 Accurately ripped (confidence 9) [9890B09E] (AR v1) Copy OK

Track 6

Filename F:\torrent\Doctor Zhivago_Maurice Jarre\score\06 Lara And Komarovsky Dancing Up A Storm.wav

Peak level 47.1 % Extraction speed 3.5 X Track quality 100.0 % Test CRC 1CBDBFE0 Copy CRC 1CBDBFE0 Accurately ripped (confidence 9) [FD168353] (AR v1) Copy OK

Track 7

Filename F:\torrent\Doctor Zhivago_Maurice Jarre\score\07 Komarovsky With Lara In The Hotel.wav

Peak level 97.6 % Extraction speed 5.9 X Track quality 100.0 % Test CRC 965B2F2B Copy CRC 965B2F2B Accurately ripped (confidence 9) [5E941B51] (AR v1) Copy OK

Track 8

Filename F:\torrent\Doctor Zhivago_Maurice Jarre\score\08 Interior Student Cafe (Outtake).wav

Peak level 100.0 % Extraction speed 5.0 X Track quality 100.0 % Test CRC 08ED77FF Copy CRC 08ED77FF Accurately ripped (confidence 9) [D7E8B22E] (AR v1) Copy OK

Track 9

Filename F:\torrent\Doctor Zhivago_Maurice Jarre\score\09 Sventitsky's Waltz,After The Shooting.wav

Peak level 58.2 % Extraction speed 5.6 X Track quality 100.0 % Test CRC 2E5E4BBB Copy CRC 2E5E4BBB Accurately ripped (confidence 9) [26B9BEF7] (AR v1) Copy OK

Track 10

Filename F:\torrent\Doctor Zhivago_Maurice Jarre\score\10 Military Parade.wav

Peak level 59.8 % Extraction speed 5.7 X Track quality 100.0 % Test CRC 3009F865 Copy CRC 3009F865 Accurately ripped (confidence 9) [FE79CD71] (AR v1) Copy OK

Track 11

Filename F:\torrent\Doctor Zhivago_Maurice Jarre\score\11 They Began To Go Home.wav

Peak level 100.0 % Extraction speed 5.9 X Track quality 100.0 % Test CRC 914058B3 Copy CRC 914058B3 Accurately ripped (confidence 9) [127930C5] (AR v1) Copy OK

Track 12

Filename F:\torrent\Doctor Zhivago_Maurice Jarre\score\12 After Deserters Killed The Colonel.wav

Peak level 90.5 % Extraction speed 4.8 X Track quality 100.0 % Test CRC FBB12F41 Copy CRC FBB12F41 Accurately ripped (confidence 9) [28238726] (AR v1) Copy OK

Track 13

Filename F:\torrent\Doctor Zhivago_Maurice Jarre\score\13 At The Hospital.wav

Peak level 42.1 % Extraction speed 4.6 X Track quality 100.0 % Test CRC D66CD080 Copy CRC D66CD080 Accurately ripped (confidence 9) [52B5569D] (AR v1) Copy OK

Track 14

Filename F:\torrent\Doctor Zhivago_Maurice Jarre\score\14 Lara Says Goodbye To Yuri.wav

Peak level 80.1 % Extraction speed 5.4 X Track quality 100.0 % Test CRC 290F5DF2 Copy CRC 290F5DF2 Accurately ripped (confidence 9) [20055CAD] (AR v1) Copy OK

Track 15

Filename F:\torrent\Doctor Zhivago_Maurice Jarre\score\15 Tonya Greets Yuri (Outtake).wav

Peak level 79.1 % Extraction speed 4.1 X Track quality 100.0 % Test CRC 7E90023F Copy CRC 7E90023F Accurately ripped (confidence 9) [C6F904FB] (AR v1) Copy OK

Track 16

Filename F:\torrent\Doctor Zhivago_Maurice Jarre\score\16 The Stove's Out (Outtake).wav

Peak level 45.7 % Extraction speed 5.6 X Track quality 100.0 % Test CRC E9A0DD40 Copy CRC E9A0DD40 Accurately ripped (confidence 9) [82203FF1] (AR v1) Copy OK

Track 17

Filename F:\torrent\Doctor Zhivago_Maurice Jarre\score\17 Yevgraf Snaps His Fingers (Outtake).wav

Peak level 50.8 % Extraction speed 5.9 X Track quality 99.9 % Test CRC 0E1D3CD6 Copy CRC 0E1D3CD6 Accurately ripped (confidence 8) [7A688E9B] (AR v1) Copy OK

Track 18

Filename F:\torrent\Doctor Zhivago_Maurice Jarre\score\18 Evening Bells - Moscow Station.wav

Peak level 43.6 % Extraction speed 5.1 X Track quality 100.0 % Test CRC 41BE6438 Copy CRC 41BE6438 Accurately ripped (confidence 9) [C6EE1653] (AR v1) Copy OK

Track 19

Filename F:\torrent\Doctor Zhivago_Maurice Jarre\score\19 Flags Flying Over The Train (Outtake).wav

Peak level 73.4 % Extraction speed 5.3 X Track quality 100.0 % Test CRC 61014359 Copy CRC 61014359 Accurately ripped (confidence 9) [E0B8DBA6] (AR v1) Copy OK

Track 20

Filename F:\torrent\Doctor Zhivago_Maurice Jarre\score\20 Yuri Gazing Through A Tiny Open Hatch (Outtake).wav

Peak level 43.4 % Extraction speed 4.0 X Track quality 100.0 % Test CRC 28E8486F Copy CRC 28E8486F Accurately ripped (confidence 9) [C7AD4B68] (AR v1) Copy OK

Track 21

Filename F:\torrent\Doctor Zhivago_Maurice Jarre\score\21 The Door Is Banged Opened (Outtake).wav

Peak level 79.4 % Extraction speed 5.0 X Track quality 99.9 % Test CRC 20DCA8EB Copy CRC 20DCA8EB Accurately ripped (confidence 8) [750229D3] (AR v1) Copy OK

Track 22

Filename F:\torrent\Doctor Zhivago_Maurice Jarre\score\22 Intermission.wav

Peak level 100.0 % Extraction speed 4.5 X Track quality 100.0 % Test CRC 037E9E7D Copy CRC 037E9E7D Accurately ripped (confidence 9) [817EC231] (AR v1) Copy OK

Track 23

Filename F:\torrent\Doctor Zhivago_Maurice Jarre\score\23 Yuri Follows The Sound Of The Waterfall.wav

Peak level 50.4 % Extraction speed 4.4 X Track quality 100.0 % Test CRC D767D040 Copy CRC D767D040 Accurately ripped (confidence 9) [8F522B72] (AR v1) Copy OK

Track 24

Filename F:\torrent\Doctor Zhivago_Maurice Jarre\score\24 Tonya And Yuri Arrive At Varykino.wav

Peak level 91.3 % Extraction speed 7.1 X Track quality 100.0 % Test CRC BE37DD84 Copy CRC BE37DD84 Accurately ripped (confidence 9) [C87F2D83] (AR v1) Copy OK

Track 25

Filename F:\torrent\Doctor Zhivago_Maurice Jarre\score\25 They Didn't Lock The Cottage.wav

Peak level 44.6 % Extraction speed 6.0 X Track quality 100.0 % Test CRC B7140746 Copy CRC B7140746 Accurately ripped (confidence 9) [B358520A] (AR v1) Copy OK

Track 26

Filename F:\torrent\Doctor Zhivago_Maurice Jarre\score\26 Varykino Cottage, Winter Snow.wav

Peak level 20.1 % Extraction speed 3.7 X Track quality 99.8 % Test CRC 6A92FC81 Copy CRC 6A92FC81 Accurately ripped (confidence 9) [5C28D4BF] (AR v1) Copy OK

Track 27

Filename F:\torrent\Doctor Zhivago_Maurice Jarre\score\27 Yuri And The Daffodils.wav

Peak level 100.0 % Extraction speed 4.4 X Track quality 99.8 % Test CRC 4C524E0F Copy CRC 4C524E0F Accurately ripped (confidence 9) [38D23D61] (AR v1) Copy OK

Track 28

Filename F:\torrent\Doctor Zhivago_Maurice Jarre\score\28 On A Yuriatin Street.wav

Peak level 92.6 % Extraction speed 6.3 X Track quality 100.0 % Test CRC 1CEEAF01 Copy CRC 1CEEAF01 Accurately ripped (confidence 9) [2B56B45A] (AR v1) Copy OK

Track 29

Filename F:\torrent\Doctor Zhivago_Maurice Jarre\score\29 In Lara's Bedroom.wav

Peak level 39.8 % Extraction speed 4.0 X Track quality 100.0 % Test CRC 7397B6CD Copy CRC 7397B6CD Accurately ripped (confidence 9) [75D34AA6] (AR v1) Copy OK

Track 30

Filename F:\torrent\Doctor Zhivago_Maurice Jarre\score\30 Yuri Rides To Yuriatin.wav

Peak level 99.1 % Extraction speed 3.2 X Track quality 100.0 % Test CRC 51D64F70 Copy CRC 51D64F70 Accurately ripped (confidence 9) [16430D2D] (AR v1) Copy OK

Track 31

Filename F:\torrent\Doctor Zhivago_Maurice Jarre\score\31 Yuri Is Taken Prisoner By The Red Partisans.wav

Peak level 73.0 % Extraction speed 3.4 X Track quality 99.7 % Test CRC 1751791A Copy CRC 1751791A Accurately ripped (confidence 9) [D2759523] (AR v1) Copy OK

Track 32

Filename F:\torrent\Doctor Zhivago_Maurice Jarre\score\32 For As Long As We Need You.wav

Peak level 68.8 % Extraction speed 3.0 X Track quality 99.7 % Test CRC B76410A4 Copy CRC B76410A4 Accurately ripped (confidence 9) [59AF1670] (AR v1) Copy OK

Track 33

Filename F:\torrent\Doctor Zhivago_Maurice Jarre\score\33 Yuri Is Escaping.wav

Peak level 48.9 % Extraction speed 7.2 X Track quality 100.0 % Test CRC CB96FA48 Copy CRC CB96FA48 Accurately ripped (confidence 9) [8F3B6C27] (AR v1) Copy OK

Track 34

Filename F:\torrent\Doctor Zhivago_Maurice Jarre\score\34 Yuri Approaches Lara's Apartment.wav

Peak level 39.4 % Extraction speed 5.0 X Track quality 100.0 % Test CRC 323F13E1 Copy CRC 323F13E1 Accurately ripped (confidence 9) [254D5CEC] (AR v1) Copy OK

Track 35

Filename F:\torrent\Doctor Zhivago_Maurice Jarre\score\35 Yuri Looks Into The Mirror.wav

Peak level 81.8 % Extraction speed 4.0 X Track quality 100.0 % Test CRC 43612C9A Copy CRC 43612C9A Accurately ripped (confidence 9) [01EAE7F8] (AR v1) Copy OK

Track 36

Filename F:\torrent\Doctor Zhivago_Maurice Jarre\score\36 Lara And Yuri Arriving At Varykino.wav

Peak level 77.0 % Extraction speed 6.6 X Track quality 100.0 % Test CRC 70CC8035 Copy CRC 70CC8035 Accurately ripped (confidence 9) [F73EDA40] (AR v1) Copy OK

Track 37

Filename F:\torrent\Doctor Zhivago_Maurice Jarre\score\37 Yuri Is Trying To Write.wav

Peak level 44.7 % Extraction speed 6.0 X Track quality 100.0 % Test CRC 0FE398B8 Copy CRC 0FE398B8 Accurately ripped (confidence 9) [C863C4DA] (AR v1) Copy OK

Track 38

Filename F:\torrent\Doctor Zhivago_Maurice Jarre\score\38 Yuri Frightens The Wolves Away, Part I.wav

Peak level 70.6 % Extraction speed 3.3 X Track quality 99.7 % Test CRC 0735184F Copy CRC 0735184F Accurately ripped (confidence 9) [42376B90] (AR v1) Copy OK

Track 39

Filename F:\torrent\Doctor Zhivago_Maurice Jarre\score\39 Lara Reads Her Poem.wav

Peak level 90.3 % Extraction speed 2.9 X Track quality 99.7 % Test CRC 78890467 Copy CRC 78890467 Accurately ripped (confidence 9) [92CC49C8] (AR v1) Copy OK

Track 40

Filename F:\torrent\Doctor Zhivago_Maurice Jarre\score\40 Yuri Frightens The Wolves Away, Part II.wav

Peak level 60.2 % Extraction speed 6.7 X Track quality 100.0 % Test CRC B6E5D035 Copy CRC B6E5D035 Accurately ripped (confidence 9) [EDA66E38] (AR v1) Copy OK

Track 41

Filename F:\torrent\Doctor Zhivago_Maurice Jarre\score\41 Yuri Works On (Outtake).wav

Peak level 100.0 % Extraction speed 3.5 X Track quality 99.7 % Test CRC 31A2C707 Copy CRC 31A2C707 Accurately ripped (confidence 9) [0F15DC36] (AR v1) Copy OK

Track 42

Filename F:\torrent\Doctor Zhivago_Maurice Jarre\score\42 Then It's A Gift (End Title).wav

Peak level 100.0 % Extraction speed 6.8 X Track quality 100.0 % Test CRC 9600E24A Copy CRC 9600E24A Accurately ripped (confidence 9) [E2A77B41] (AR v1) Copy OK

Track 43

Filename F:\torrent\Doctor Zhivago_Maurice Jarre\score\43 Lara's Theme (Jazz Version).wav

Peak level 84.9 % Extraction speed 5.4 X Track quality 99.9 % Test CRC 5767F36D Copy CRC 5767F36D Accurately ripped (confidence 9) [C6E42E97] (AR v1) Copy OK

Track 44

Filename F:\torrent\Doctor Zhivago_Maurice Jarre\score\44 Lara's Theme (Rock 'N' Roll Version).wav

Peak level 89.3 % Extraction speed 7.7 X Track quality 100.0 % Test CRC B7B46770 Copy CRC B7B46770 Accurately ripped (confidence 9) [370E40AD] (AR v1) Copy OK

Track 45

Filename F:\torrent\Doctor Zhivago_Maurice Jarre\score\45 Lara's Theme (Swing Version).wav

Peak level 82.7 % Extraction speed 8.5 X Track quality 100.0 % Test CRC 567BE183 Copy CRC 567BE183 Accurately ripped (confidence 8) [94759847] (AR v1) Copy OK

All tracks accurately ripped

No errors occurred

End of status report

==== Log checksum A6A649A8E969A713CFA2B2FA4A454A51A3FDAAC56E3732A4E7F97C2C2D848D74 ====
 
REM GENRE SoundtrackREM DATE 1995REM DISCID 9C105A2DREM COMMENT "ExactAudioCopy v1.0b3"CATALOG 0075677195724PERFORMER "Maurice Jarre"TITLE "Doctor Zhivago"FILE "01 Overture.wav" WAVE TRACK 01 AUDIO TITLE "Overture" PERFORMER "Maurice Jarre" PREGAP 00:00:32 INDEX 01 00:00:00FILE "02 Main Title.wav" WAVE TRACK 02 AUDIO TITLE "Main Title" PERFORMER "Maurice Jarre" INDEX 01 00:00:00FILE "03 Kontakion,Funeral Song.wav" WAVE TRACK 03 AUDIO TITLE "Kontakion/Funeral Song" PERFORMER "Maurice Jarre" INDEX 01 00:00:00FILE "04 Lara Is Charming.wav" WAVE TRACK 04 AUDIO TITLE "Lara Is Charming" PERFORMER "Maurice Jarre" INDEX 01 00:00:00FILE "05 The Internationale.wav" WAVE TRACK 05 AUDIO TITLE "The Internationale" PERFORMER "Maurice Jarre" INDEX 01 00:00:00FILE "06 Lara And Komarovsky Dancing Up A Storm.wav" WAVE TRACK 06 AUDIO TITLE "Lara And Komarovsky Dancing Up A Storm" PERFORMER "Maurice Jarre" INDEX 01 00:00:00FILE "07 Komarovsky With Lara In The Hotel.wav" WAVE TRACK 07 AUDIO TITLE "Komarovsky With Lara In The Hotel" PERFORMER "Maurice Jarre" INDEX 01 00:00:00FILE "08 Interior Student Cafe (Outtake).wav" WAVE TRACK 08 AUDIO TITLE "Interior Student Cafe (Outtake)" PERFORMER "Maurice Jarre" INDEX 01 00:00:00FILE "09 Sventitsky's Waltz,After The Shooting.wav" WAVE TRACK 09 AUDIO TITLE "Sventitsky's Waltz/After The Shooting" PERFORMER "Maurice Jarre" INDEX 01 00:00:00FILE "10 Military Parade.wav" WAVE TRACK 10 AUDIO TITLE "Military Parade" PERFORMER "Maurice Jarre" INDEX 01 00:00:00FILE "11 They Began To Go Home.wav" WAVE TRACK 11 AUDIO TITLE "They Began To Go Home" PERFORMER "Maurice Jarre" INDEX 01 00:00:00FILE "12 After Deserters Killed The Colonel.wav" WAVE TRACK 12 AUDIO TITLE "After Deserters Killed The Colonel" PERFORMER "Maurice Jarre" INDEX 01 00:00:00FILE "13 At The Hospital.wav" WAVE TRACK 13 AUDIO TITLE "At The Hospital" PERFORMER "Maurice Jarre" INDEX 01 00:00:00FILE "14 Lara Says Goodbye To Yuri.wav" WAVE TRACK 14 AUDIO TITLE "Lara Says Goodbye To Yuri" PERFORMER "Maurice Jarre" INDEX 01 00:00:00FILE "15 Tonya Greets Yuri (Outtake).wav" WAVE TRACK 15 AUDIO TITLE "Tonya Greets Yuri (Outtake)" PERFORMER "Maurice Jarre" INDEX 01 00:00:00FILE "16 The Stove's Out (Outtake).wav" WAVE TRACK 16 AUDIO TITLE "The Stove's Out (Outtake)" PERFORMER "Maurice Jarre" INDEX 01 00:00:00FILE "17 Yevgraf Snaps His Fingers (Outtake).wav" WAVE TRACK 17 AUDIO TITLE "Yevgraf Snaps His Fingers (Outtake)" PERFORMER "Maurice Jarre" INDEX 01 00:00:00FILE "18 Evening Bells - Moscow Station.wav" WAVE TRACK 18 AUDIO TITLE "Evening Bells - Moscow Station" PERFORMER "Maurice Jarre" INDEX 01 00:00:00FILE "19 Flags Flying Over The Train (Outtake).wav" WAVE TRACK 19 AUDIO TITLE "Flags Flying Over The Train (Outtake)" PERFORMER "Maurice Jarre" INDEX 01 00:00:00FILE "20 Yuri Gazing Through A Tiny Open Hatch (Outtake).wav" WAVE TRACK 20 AUDIO TITLE "Yuri Gazing Through A Tiny Open Hatch (Outtake)" PERFORMER "Maurice Jarre" INDEX 01 00:00:00FILE "21 The Door Is Banged Opened (Outtake).wav" WAVE TRACK 21 AUDIO TITLE "The Door Is Banged Opened (Outtake)" PERFORMER "Maurice Jarre" INDEX 01 00:00:00FILE "22 Intermission.wav" WAVE TRACK 22 AUDIO TITLE "Intermission" PERFORMER "Maurice Jarre" INDEX 01 00:00:00FILE "23 Yuri Follows The Sound Of The Waterfall.wav" WAVE TRACK 23 AUDIO TITLE "Yuri Follows The Sound Of The Waterfall" PERFORMER "Maurice Jarre" INDEX 01 00:00:00FILE "24 Tonya And Yuri Arrive At Varykino.wav" WAVE TRACK 24 AUDIO TITLE "Tonya And Yuri Arrive At Varykino" PERFORMER "Maurice Jarre" INDEX 01 00:00:00FILE "25 They Didn't Lock The Cottage.wav" WAVE TRACK 25 AUDIO TITLE "They Didn't Lock The Cottage" PERFORMER "Maurice Jarre" INDEX 01 00:00:00FILE "26 Varykino Cottage, Winter Snow.wav" WAVE TRACK 26 AUDIO TITLE "Varykino Cottage, Winter Snow" PERFORMER "Maurice Jarre" INDEX 01 00:00:00FILE "27 Yuri And The Daffodils.wav" WAVE TRACK 27 AUDIO TITLE "Yuri And The Daffodils" PERFORMER "Maurice Jarre" INDEX 01 00:00:00FILE "28 On A Yuriatin Street.wav" WAVE TRACK 28 AUDIO TITLE "On A Yuriatin Street" PERFORMER "Maurice Jarre" INDEX 01 00:00:00FILE "29 In Lara's Bedroom.wav" WAVE TRACK 29 AUDIO TITLE "In Lara's Bedroom" PERFORMER "Maurice Jarre" INDEX 01 00:00:00FILE "30 Yuri Rides To Yuriatin.wav" WAVE TRACK 30 AUDIO TITLE "Yuri Rides To Yuriatin" PERFORMER "Maurice Jarre" INDEX 01 00:00:00FILE "31 Yuri Is Taken Prisoner By The Red Partisans.wav" WAVE TRACK 31 AUDIO TITLE "Yuri Is Taken Prisoner By The Red Partisans" PERFORMER "Maurice Jarre" INDEX 01 00:00:00FILE "32 For As Long As We Need You.wav" WAVE TRACK 32 AUDIO TITLE "For As Long As We Need You" PERFORMER "Maurice Jarre" INDEX 01 00:00:00FILE "33 Yuri Is Escaping.wav" WAVE TRACK 33 AUDIO TITLE "Yuri Is Escaping" PERFORMER "Maurice Jarre" INDEX 01 00:00:00FILE "34 Yuri Approaches Lara's Apartment.wav" WAVE TRACK 34 AUDIO TITLE "Yuri Approaches Lara's Apartment" PERFORMER "Maurice Jarre" INDEX 01 00:00:00FILE "35 Yuri Looks Into The Mirror.wav" WAVE TRACK 35 AUDIO TITLE "Yuri Looks Into The Mirror" PERFORMER "Maurice Jarre" INDEX 01 00:00:00FILE "36 Lara And Yuri Arriving At Varykino.wav" WAVE TRACK 36 AUDIO TITLE "Lara And Yuri Arriving At Varykino" PERFORMER "Maurice Jarre" INDEX 01 00:00:00FILE "37 Yuri Is Trying To Write.wav" WAVE TRACK 37 AUDIO TITLE "Yuri Is Trying To Write" PERFORMER "Maurice Jarre" INDEX 01 00:00:00FILE "38 Yuri Frightens The Wolves Away, Part I.wav" WAVE TRACK 38 AUDIO TITLE "Yuri Frightens The Wolves Away, Part I" PERFORMER "Maurice Jarre" INDEX 01 00:00:00FILE "39 Lara Reads Her Poem.wav" WAVE TRACK 39 AUDIO TITLE "Lara Reads Her Poem" PERFORMER "Maurice Jarre" INDEX 01 00:00:00FILE "40 Yuri Frightens The Wolves Away, Part II.wav" WAVE TRACK 40 AUDIO TITLE "Yuri Frightens The Wolves Away, Part II" PERFORMER "Maurice Jarre" INDEX 01 00:00:00FILE "41 Yuri Works On (Outtake).wav" WAVE TRACK 41 AUDIO TITLE "Yuri Works On (Outtake)" PERFORMER "Maurice Jarre" INDEX 01 00:00:00FILE "42 Then It's A Gift (End Title).wav" WAVE TRACK 42 AUDIO TITLE "Then It's A Gift (End Title)" PERFORMER "Maurice Jarre" INDEX 01 00:00:00FILE "43 Lara's Theme (Jazz Version).wav" WAVE TRACK 43 AUDIO TITLE "Lara's Theme (Jazz Version)" PERFORMER "Maurice Jarre" INDEX 01 00:00:00FILE "44 Lara's Theme (Rock 'N' Roll Version).wav" WAVE TRACK 44 AUDIO TITLE "Lara's Theme (Rock 'N' Roll Version)" PERFORMER "Maurice Jarre" INDEX 01 00:00:00FILE "45 Lara's Theme (Swing Version).wav" WAVE TRACK 45 AUDIO TITLE "Lara's Theme (Swing Version)" PERFORMER "Maurice Jarre" INDEX 01 00:00:00


Трекер:  [ 16-Ноя-2011 10:40 ]

  

Скачать .torrent

Размер .torrent файла 15 KB


Размер: 520 MB
Хэш (hash) релиза: 991cce02e28e2fe481a081131e1e9407078b86fc

Торренты, похожие на Доктор Живаго Doctor Zhivago скачать торрент

Форум Название Автор Размер S L Добавлен
Саундтреки к фильмам и мультфильмам (mp3) ·· (Score) Доктор Живаго / Дочь Райана // Doctor Zhivago / Ryan's Daughter (by Maurice Jarre) - 1989 (1965, 1970), MP3, 320 kbps Galfimbul 195907557187 MB 0 0 1445205059

00:50

19-Окт-15

Еще никто не оставлял запись к записи скачать торрент Доктор Живаго Doctor Zhivago . Будь первым!

!Обратная связь