Скачать через торрент музыку Первый рыцарь First Knight бесплатно без регистрации torrent

Если у вас наблюдаются проблемы со скриншотами, переходом по ссылками, скачиванием торрентов - проблемы в блокировщике рекламы AdBlock. #хорошегоДня!


Статистика раздачи
Размер:  717 MB   |    Зарегистрирован:  6 лет   |    .torrent скачан:  44 раза   |   
Раздают:  1  
   
Загрузка...
 
Автор Сообщение

Galfimbul

avatar Galfimbul


Первый рыцарь / First Knight

Жанр: Score
Композитор: Jerry Goldsmith
Год выпуска диска: 2011
Год выпуска фильма: 1995
Страна-производитель диска: США
Издатель (лейбл): La-La Land Records
Номер по каталогу: LLLCD 1168

Аудиокодек: FLAC (*.flac)
Тип рипа: tracks+.cue
Битрейт аудио: lossless
Продолжительность: 02:25:33

Источник: emule
Наличие сканов в содержимом раздачи: нет
01. The Legend Of Camelot (00:58)
02. Raid On Leonesse (05:12)
03. True Love / The Ambush / First Sight (06:24)
04. Does It Please You / Look At Me (03:25)
05. Promise Me (02:20)
06. Camelot (02:37)
07. Gauntlet Drums (01:50)
08. Meet The Queen (00:45)
09. The Gauntlet / No Kiss (02:02)
10. No Joy / Try Her / Wedding Plans / I Will Fight (02:58)
11. Boat Trip (02:03)
12. The Cave (02:14)
13. Walls Of Air (01:33)
14. Escape From The Cave (03:25)
15. Prove It (02:55)
16. A New Life (05:38)
17. To Leonesse (03:24)
18. Night Battle (05:53)
19. Village Ruins (03:19)
20. The Kiss (01:59)
21. Open The Door / No One Move (01:58)
22. Arthur's Farewell (05:25)
23. Never Surrender (05:40)
24. Camelot Lives (04:04)
 
Exact Audio Copy V0.99 prebeta 5 from 4. May 2009

EAC extraction logfile from 17. April 2011, 13:27

Jerry Goldsmith / First Knight - Disc 1

Used drive : HL-DT-STDVD-ROM DH10N Adapter: 3 ID: 1

Read mode : SecureUtilize accurate stream : YesDefeat audio cache : YesMake use of C2 pointers : No

Read offset correction : 102Overread into Lead-In and Lead-Out : NoFill up missing offset samples with silence : YesDelete leading and trailing silent blocks : NoNull samples used in CRC calculations : YesUsed interface : Native Win32 interface for Win NT & 2000Gap handling : Appended to previous track

Used output format : User Defined EncoderSelected bitrate : 768 kBit/sQuality : HighAdd ID3 tag : NoCommand line compressor : C:\Program Files\Exact Audio Copy\FLAC\FLAC.EXEAdditional command line options : -V -T "ARTIST=%a" -T "TITLE=%t" -T "ALBUM=%g" -T "DATE= %y" -T "TRACKNUMBER=%n" -T "GENRE=%m" -T "COMMENT=%e" %s -o %d

TOC of the extracted CD

Track | Start | Length | Start sector | End sector --------------------------------------------------------- 1 | 0:00.00 | 0:59.64 | 0 | 4488 2 | 0:59.64 | 5:11.65 | 4489 | 27878 3 | 6:11.54 | 6:25.66 | 27879 | 56819 4 | 12:37.45 | 3:27.23 | 56820 | 72367 5 | 16:04.68 | 2:21.66 | 72368 | 83008 6 | 18:26.59 | 2:39.47 | 83009 | 94980 7 | 21:06.31 | 1:52.39 | 94981 | 103419 8 | 22:58.70 | 0:47.03 | 103420 | 106947 9 | 23:45.73 | 2:04.66 | 106948 | 116313 10 | 25:50.64 | 3:00.35 | 116314 | 129848 11 | 28:51.24 | 2:04.59 | 129849 | 139207 12 | 30:56.08 | 2:15.62 | 139208 | 149394 13 | 33:11.70 | 1:34.70 | 149395 | 156514 14 | 34:46.65 | 3:27.43 | 156515 | 172082 15 | 38:14.33 | 2:56.45 | 172083 | 185327 16 | 41:11.03 | 4:57.24 | 185328 | 207626 17 | 46:08.27 | 3:25.31 | 207627 | 223032 18 | 49:33.58 | 5:54.43 | 223033 | 249625 19 | 55:28.26 | 3:22.50 | 249626 | 264825 20 | 58:51.01 | 2:00.33 | 264826 | 273858 21 | 60:51.34 | 1:59.02 | 273859 | 282785 22 | 62:50.36 | 5:27.39 | 282786 | 307349 23 | 68:18.00 | 5:42.39 | 307350 | 333038 24 | 74:00.39 | 4:04.24 | 333039 | 351362

Track 1

Filename C:\EAC Rips\Jerry Goldsmith - 1995 - First Knight - Disc 1\01 - The Legend of Camelot.wav

Pre-gap length 0:00:02.00

Peak level 93.6 % Track quality 100.0 % Copy CRC 8AEDB782 Copy OK

Track 2

Filename C:\EAC Rips\Jerry Goldsmith - 1995 - First Knight - Disc 1\02 - Raid on Leonesse.wav

Pre-gap length 0:00:01.58

Peak level 94.4 % Track quality 100.0 % Copy CRC 82D6D004 Copy OK

Track 3

Filename C:\EAC Rips\Jerry Goldsmith - 1995 - First Knight - Disc 1\03 - True Love - The Ambush - First Sight.wav

Pre-gap length 0:00:02.10

Peak level 97.6 % Track quality 100.0 % Copy CRC 770EA0D5 Copy OK

Track 4

Filename C:\EAC Rips\Jerry Goldsmith - 1995 - First Knight - Disc 1\04 - Does It Please You - Look At Me.wav

Pre-gap length 0:00:01.65

Peak level 56.5 % Track quality 100.0 % Copy CRC E3CFF9A6 Copy OK

Track 5

Filename C:\EAC Rips\Jerry Goldsmith - 1995 - First Knight - Disc 1\05 - Promise Me.wav

Pre-gap length 0:00:01.57

Peak level 94.3 % Track quality 100.0 % Copy CRC 29B60FD6 Copy OK

Track 6

Filename C:\EAC Rips\Jerry Goldsmith - 1995 - First Knight - Disc 1\06 - Camelot.wav

Pre-gap length 0:00:01.57

Peak level 94.4 % Track quality 100.0 % Copy CRC 761B236F Copy OK

Track 7

Filename C:\EAC Rips\Jerry Goldsmith - 1995 - First Knight - Disc 1\07 - Gauntlet Drums.wav

Pre-gap length 0:00:01.57

Peak level 95.7 % Track quality 100.0 % Copy CRC 63B02DC0 Copy OK

Track 8

Filename C:\EAC Rips\Jerry Goldsmith - 1995 - First Knight - Disc 1\08 - Meet The Queen.wav

Pre-gap length 0:00:01.58

Peak level 69.1 % Track quality 100.0 % Copy CRC 152E9EDA Copy OK

Track 9

Filename C:\EAC Rips\Jerry Goldsmith - 1995 - First Knight - Disc 1\09 - The Gauntlet - No Kiss.wav

Pre-gap length 0:00:01.58

Peak level 94.1 % Track quality 99.9 % Copy CRC 2E4B0456 Copy OK

Track 10

Filename C:\EAC Rips\Jerry Goldsmith - 1995 - First Knight - Disc 1\10 - No Joy - Try Her - Wedding Plans - I Will Fight.wav

Pre-gap length 0:00:02.32

Peak level 43.8 % Track quality 100.0 % Copy CRC 9B7E0DC4 Copy OK

Track 11

Filename C:\EAC Rips\Jerry Goldsmith - 1995 - First Knight - Disc 1\11 - Boat Trip.wav

Pre-gap length 0:00:01.57

Peak level 98.4 % Track quality 100.0 % Copy CRC EA0A06EB Copy OK

Track 12

Filename C:\EAC Rips\Jerry Goldsmith - 1995 - First Knight - Disc 1\12 - The Cave.wav

Pre-gap length 0:00:01.57

Peak level 93.4 % Track quality 99.9 % Copy CRC E1D07893 Copy OK

Track 13

Filename C:\EAC Rips\Jerry Goldsmith - 1995 - First Knight - Disc 1\13 - Walls of Air.wav

Pre-gap length 0:00:01.57

Peak level 70.6 % Track quality 100.0 % Copy CRC 46649FAB Copy OK

Track 14

Filename C:\EAC Rips\Jerry Goldsmith - 1995 - First Knight - Disc 1\14 - Escape From the Cave.wav

Pre-gap length 0:00:01.57

Peak level 96.1 % Track quality 100.0 % Copy CRC B44BEFD5 Copy OK

Track 15

Filename C:\EAC Rips\Jerry Goldsmith - 1995 - First Knight - Disc 1\15 - Prove It.wav

Pre-gap length 0:00:02.08

Peak level 38.4 % Track quality 100.0 % Copy CRC 4C6978DB Copy OK

Track 16

Filename C:\EAC Rips\Jerry Goldsmith - 1995 - First Knight - Disc 1\16 - A New Life.wav

Pre-gap length 0:00:01.53

Peak level 90.6 % Track quality 100.0 % Copy CRC BDF6A4FD Copy OK

Track 17

Filename C:\EAC Rips\Jerry Goldsmith - 1995 - First Knight - Disc 1\17 - To Leonesse.wav

Pre-gap length 0:00:03.16

Peak level 88.6 % Track quality 100.0 % Copy CRC 2F013232 Copy OK

Track 18

Filename C:\EAC Rips\Jerry Goldsmith - 1995 - First Knight - Disc 1\18 - Night Battle.wav

Pre-gap length 0:00:01.53

Peak level 94.4 % Track quality 100.0 % Copy CRC 275CA91E Copy OK

Track 19

Filename C:\EAC Rips\Jerry Goldsmith - 1995 - First Knight - Disc 1\19 - Village Ruins.wav

Pre-gap length 0:00:01.01

Peak level 77.4 % Track quality 100.0 % Copy CRC A41027FF Copy OK

Track 20

Filename C:\EAC Rips\Jerry Goldsmith - 1995 - First Knight - Disc 1\20 - The Kiss.wav

Pre-gap length 0:00:03.05

Peak level 26.4 % Track quality 100.0 % Copy CRC 7E222CAF Copy OK

Track 21

Filename C:\EAC Rips\Jerry Goldsmith - 1995 - First Knight - Disc 1\21 - Open the Door - No One Move.wav

Peak level 65.6 % Track quality 100.0 % Copy CRC 3E429442 Copy OK

Track 22

Filename C:\EAC Rips\Jerry Goldsmith - 1995 - First Knight - Disc 1\22 - Arthur's Farewell.wav

Peak level 92.3 % Track quality 99.9 % Copy CRC 687C0986 Copy OK

Track 23

Filename C:\EAC Rips\Jerry Goldsmith - 1995 - First Knight - Disc 1\23 - Never Surrender.wav

Pre-gap length 0:00:02.37

Peak level 94.4 % Track quality 100.0 % Copy CRC 962F6B3B Copy OK

Track 24

Filename C:\EAC Rips\Jerry Goldsmith - 1995 - First Knight - Disc 1\24 - Camelot Lives.wav

Pre-gap length 0:00:01.90

Peak level 84.3 % Track quality 100.0 % Copy CRC FA303496 Copy OK

No errors occurred

End of status report
 
REM GENRE SoundtrackREM DATE 2011REM DISCID 67124C18REM COMMENT "ExactAudioCopy v0.99pb5"FILE "01 - The Legend of Camelot.flac" WAVE TRACK 01 AUDIO INDEX 01 00:00:00 TRACK 02 AUDIO INDEX 00 00:58:20FILE "02 - Raid on Leonesse.flac" WAVE INDEX 01 00:00:00 TRACK 03 AUDIO INDEX 00 05:09:57FILE "03 - True Love - The Ambush - First Sight.flac" WAVE INDEX 01 00:00:00 TRACK 04 AUDIO INDEX 00 06:24:17FILE "04 - Does It Please You - Look At Me.flac" WAVE INDEX 01 00:00:00 TRACK 05 AUDIO INDEX 00 03:25:55FILE "05 - Promise Me.flac" WAVE INDEX 01 00:00:00 TRACK 06 AUDIO INDEX 00 02:20:23FILE "06 - Camelot.flac" WAVE INDEX 01 00:00:00 TRACK 07 AUDIO INDEX 00 02:38:04FILE "07 - Gauntlet Drums.flac" WAVE INDEX 01 00:00:00 TRACK 08 AUDIO INDEX 00 01:50:70FILE "08 - Meet The Queen.flac" WAVE INDEX 01 00:00:00 TRACK 09 AUDIO INDEX 00 00:45:34FILE "09 - The Gauntlet - No Kiss.flac" WAVE INDEX 01 00:00:00 TRACK 10 AUDIO INDEX 00 02:02:42FILE "10 - No Joy - Try Her - Wedding Plans - I Will Fight.flac" WAVE INDEX 01 00:00:00 TRACK 11 AUDIO INDEX 00 02:58:67FILE "11 - Boat Trip.flac" WAVE INDEX 01 00:00:00 TRACK 12 AUDIO INDEX 00 02:03:16FILE "12 - The Cave.flac" WAVE INDEX 01 00:00:00 TRACK 13 AUDIO INDEX 00 02:14:19FILE "13 - Walls of Air.flac" WAVE INDEX 01 00:00:00 TRACK 14 AUDIO INDEX 00 01:33:27FILE "14 - Escape From the Cave.flac" WAVE INDEX 01 00:00:00 TRACK 15 AUDIO INDEX 00 03:25:37FILE "15 - Prove It.flac" WAVE INDEX 01 00:00:00 TRACK 16 AUDIO INDEX 00 02:55:05FILE "16 - A New Life.flac" WAVE INDEX 01 00:00:00 TRACK 17 AUDIO INDEX 00 04:54:12FILE "17 - To Leonesse.flac" WAVE INDEX 01 00:00:00 TRACK 18 AUDIO INDEX 00 03:23:66FILE "18 - Night Battle.flac" WAVE INDEX 01 00:00:00 TRACK 19 AUDIO INDEX 00 05:53:42FILE "19 - Village Ruins.flac" WAVE INDEX 01 00:00:00 TRACK 20 AUDIO INDEX 00 03:19:46FILE "20 - The Kiss.flac" WAVE INDEX 01 00:00:00FILE "21 - Open the Door - No One Move.flac" WAVE TRACK 21 AUDIO INDEX 01 00:00:00FILE "22 - Arthur's Farewell.flac" WAVE TRACK 22 AUDIO INDEX 01 00:00:00 TRACK 23 AUDIO INDEX 00 05:25:11FILE "23 - Never Surrender.flac" WAVE INDEX 01 00:00:00 TRACK 24 AUDIO INDEX 00 05:40:46FILE "24 - Camelot Lives.flac" WAVE INDEX 01 00:00:00
 
Started at: понедельник, 14. 11. 2011. - 2:53.46

24 files found

01 -===- C:\!_TORRENT\Jerry Goldsmith - First Knight (Limited) (2011) [FLAC]\CD1\01 - The Legend of Camelot.flac Extracted successfully Conclusion: This track looks like CDDA with probability 100% Tempfile successfully deleted.

02 -===- C:\!_TORRENT\Jerry Goldsmith - First Knight (Limited) (2011) [FLAC]\CD1\02 - Raid on Leonesse.flac Extracted successfully Conclusion: This track looks like CDDA with probability 100% Tempfile successfully deleted.

03 -===- C:\!_TORRENT\Jerry Goldsmith - First Knight (Limited) (2011) [FLAC]\CD1\03 - True Love - The Ambush - First Sight.flac Extracted successfully Conclusion: This track looks like CDDA with probability 100% Tempfile successfully deleted.

04 -===- C:\!_TORRENT\Jerry Goldsmith - First Knight (Limited) (2011) [FLAC]\CD1\04 - Does It Please You - Look At Me.flac Extracted successfully Conclusion: This track looks like CDDA with probability 100% Tempfile successfully deleted.

05 -===- C:\!_TORRENT\Jerry Goldsmith - First Knight (Limited) (2011) [FLAC]\CD1\05 - Promise Me.flac Extracted successfully Conclusion: This track looks like CDDA with probability 100% Tempfile successfully deleted.

06 -===- C:\!_TORRENT\Jerry Goldsmith - First Knight (Limited) (2011) [FLAC]\CD1\06 - Camelot.flac Extracted successfully Conclusion: This track looks like CDDA with probability 99% Tempfile successfully deleted.

07 -===- C:\!_TORRENT\Jerry Goldsmith - First Knight (Limited) (2011) [FLAC]\CD1\07 - Gauntlet Drums.flac Extracted successfully Conclusion: This track looks like CDDA with probability 100% Tempfile successfully deleted.

08 -===- C:\!_TORRENT\Jerry Goldsmith - First Knight (Limited) (2011) [FLAC]\CD1\08 - Meet The Queen.flac Extracted successfully Conclusion: This track looks like CDDA with probability 100% Tempfile successfully deleted.

09 -===- C:\!_TORRENT\Jerry Goldsmith - First Knight (Limited) (2011) [FLAC]\CD1\09 - The Gauntlet - No Kiss.flac Extracted successfully Conclusion: This track looks like CDDA with probability 100% Tempfile successfully deleted.

10 -===- C:\!_TORRENT\Jerry Goldsmith - First Knight (Limited) (2011) [FLAC]\CD1\10 - No Joy - Try Her - Wedding Plans - I Will Fight.flac Extracted successfully Conclusion: This track looks like CDDA with probability 99% Tempfile successfully deleted.

11 -===- C:\!_TORRENT\Jerry Goldsmith - First Knight (Limited) (2011) [FLAC]\CD1\11 - Boat Trip.flac Extracted successfully Conclusion: This track looks like CDDA with probability 100% Tempfile successfully deleted.

12 -===- C:\!_TORRENT\Jerry Goldsmith - First Knight (Limited) (2011) [FLAC]\CD1\12 - The Cave.flac Extracted successfully Conclusion: This track looks like CDDA with probability 100% Tempfile successfully deleted.

13 -===- C:\!_TORRENT\Jerry Goldsmith - First Knight (Limited) (2011) [FLAC]\CD1\13 - Walls of Air.flac Extracted successfully Conclusion: This track looks like CDDA with probability 100% Tempfile successfully deleted.

14 -===- C:\!_TORRENT\Jerry Goldsmith - First Knight (Limited) (2011) [FLAC]\CD1\14 - Escape From the Cave.flac Extracted successfully Conclusion: This track looks like CDDA with probability 99% Tempfile successfully deleted.

15 -===- C:\!_TORRENT\Jerry Goldsmith - First Knight (Limited) (2011) [FLAC]\CD1\15 - Prove It.flac Extracted successfully Conclusion: This track looks like CDDA with probability 100% Tempfile successfully deleted.

16 -===- C:\!_TORRENT\Jerry Goldsmith - First Knight (Limited) (2011) [FLAC]\CD1\16 - A New Life.flac Extracted successfully Conclusion: This track looks like CDDA with probability 100% Tempfile successfully deleted.

17 -===- C:\!_TORRENT\Jerry Goldsmith - First Knight (Limited) (2011) [FLAC]\CD1\17 - To Leonesse.flac Extracted successfully Conclusion: This track looks like CDDA with probability 99% Tempfile successfully deleted.

18 -===- C:\!_TORRENT\Jerry Goldsmith - First Knight (Limited) (2011) [FLAC]\CD1\18 - Night Battle.flac Extracted successfully Conclusion: This track looks like CDDA with probability 100% Tempfile successfully deleted.

19 -===- C:\!_TORRENT\Jerry Goldsmith - First Knight (Limited) (2011) [FLAC]\CD1\19 - Village Ruins.flac Extracted successfully Conclusion: This track looks like CDDA with probability 99% Tempfile successfully deleted.

20 -===- C:\!_TORRENT\Jerry Goldsmith - First Knight (Limited) (2011) [FLAC]\CD1\20 - The Kiss.flac Extracted successfully Conclusion: This track looks like CDDA with probability 100% Tempfile successfully deleted.

21 -===- C:\!_TORRENT\Jerry Goldsmith - First Knight (Limited) (2011) [FLAC]\CD1\21 - Open the Door - No One Move.flac Extracted successfully Conclusion: This track looks like CDDA with probability 99% Tempfile successfully deleted.

22 -===- C:\!_TORRENT\Jerry Goldsmith - First Knight (Limited) (2011) [FLAC]\CD1\22 - Arthur's Farewell.flac Extracted successfully Conclusion: This track looks like CDDA with probability 99% Tempfile successfully deleted.

23 -===- C:\!_TORRENT\Jerry Goldsmith - First Knight (Limited) (2011) [FLAC]\CD1\23 - Never Surrender.flac Extracted successfully Conclusion: This track looks like CDDA with probability 100% Tempfile successfully deleted.

24 -===- C:\!_TORRENT\Jerry Goldsmith - First Knight (Limited) (2011) [FLAC]\CD1\24 - Camelot Lives.flac Extracted successfully Conclusion: This track looks like CDDA with probability 100% Tempfile successfully deleted.

Finished at: понедельник, 14. 11. 2011. - 3:01.31 (operation time: 0:07.45)
01. Arthur's Fanfare (00:45)
02. Promise Me (04:04)
03. Camelot (02:19)
04. Raid On Leonesse (04:26)
05. A New Life (04:54)
06. To Leonesse (03:25)
07. Night Battle (05:39)
08. Village Ruins (03:20)
09. Arthur's Farewell (05:25)
10. Camelot Lives (05:40)
Tracks 1-10 - 1995 soundtrack album
11. The Ambush / First Sight (Alternate Version) (05:46)
12. Boat Trip (Alternate Segment) (01:05)
13. A New Life (Alternate Version I) (05:37)
14. A New Life (Alternate Version II) (03:14)
15. To Leonesse (Alternate Version) (02:40)
16. Village Ruins (Alternate Version) (03:29)
17. Never Surrender (Alternate Version) (05:20)
Tracks 11-17 - additional music
 
Exact Audio Copy V0.99 prebeta 5 from 4. May 2009

EAC extraction logfile from 17. April 2011, 13:05

Jerry Goldsmith / First Knight - Disk 2

Used drive : HL-DT-STDVD-ROM DH10N Adapter: 3 ID: 1

Read mode : SecureUtilize accurate stream : YesDefeat audio cache : YesMake use of C2 pointers : No

Read offset correction : 102Overread into Lead-In and Lead-Out : NoFill up missing offset samples with silence : YesDelete leading and trailing silent blocks : NoNull samples used in CRC calculations : YesUsed interface : Native Win32 interface for Win NT & 2000Gap handling : Appended to previous track

Used output format : User Defined EncoderSelected bitrate : 768 kBit/sQuality : HighAdd ID3 tag : NoCommand line compressor : C:\Program Files\Exact Audio Copy\FLAC\FLAC.EXEAdditional command line options : -V -T "ARTIST=%a" -T "TITLE=%t" -T "ALBUM=%g" -T "DATE= %y" -T "TRACKNUMBER=%n" -T "GENRE=%m" -T "COMMENT=%e" %s -o %d

TOC of the extracted CD

Track | Start | Length | Start sector | End sector --------------------------------------------------------- 1 | 0:00.00 | 0:46.42 | 0 | 3491 2 | 0:46.42 | 4:05.70 | 3492 | 21936 3 | 4:52.37 | 2:21.59 | 21937 | 32570 4 | 7:14.21 | 4:27.64 | 32571 | 52659 5 | 11:42.10 | 4:56.47 | 52660 | 74906 6 | 16:38.57 | 3:27.05 | 74907 | 90436 7 | 20:05.62 | 5:41.36 | 90437 | 116047 8 | 25:47.23 | 3:22.19 | 116048 | 131216 9 | 29:09.42 | 5:27.10 | 131217 | 155751 10 | 34:36.52 | 5:45.31 | 155752 | 181657 11 | 40:22.08 | 5:47.50 | 181658 | 207732 12 | 46:09.58 | 1:07.42 | 207733 | 212799 13 | 47:17.25 | 5:41.24 | 212800 | 238398 14 | 52:58.49 | 3:17.03 | 238399 | 253176 15 | 56:15.52 | 2:44.29 | 253177 | 265505 16 | 59:00.06 | 3:31.20 | 265506 | 281350 17 | 62:31.26 | 5:20.31 | 281351 | 305381

Track 1

Filename C:\EAC Rips\Jerry Goldsmith - 1995 - First Knight - Disk 2\01 - Arthur's Fanfare.wav

Pre-gap length 0:00:02.00

Peak level 69.1 % Track quality 100.0 % Copy CRC 3F7A69C4 Copy OK

Track 2

Filename C:\EAC Rips\Jerry Goldsmith - 1995 - First Knight - Disk 2\02 - Promise Me.wav

Pre-gap length 0:00:01.21

Peak level 84.3 % Track quality 100.0 % Copy CRC C1A04875 Copy OK

Track 3

Filename C:\EAC Rips\Jerry Goldsmith - 1995 - First Knight - Disk 2\03 - Camelot.wav

Pre-gap length 0:00:01.76

Peak level 94.3 % Track quality 99.9 % Copy CRC 74E22B06 Copy OK

Track 4

Filename C:\EAC Rips\Jerry Goldsmith - 1995 - First Knight - Disk 2\04 - Raid On Leonesse.wav

Pre-gap length 0:00:02.06

Peak level 94.7 % Track quality 100.0 % Copy CRC F0041CF0 Copy OK

Track 5

Filename C:\EAC Rips\Jerry Goldsmith - 1995 - First Knight - Disk 2\05 - A New Life.wav

Pre-gap length 0:00:01.82

Peak level 90.6 % Track quality 100.0 % Copy CRC D39273A6 Copy OK

Track 6

Filename C:\EAC Rips\Jerry Goldsmith - 1995 - First Knight - Disk 2\06 - To Leonesse.wav

Pre-gap length 0:00:02.44

Peak level 96.1 % Track quality 100.0 % Copy CRC E0772FB6 Copy OK

Track 7

Filename C:\EAC Rips\Jerry Goldsmith - 1995 - First Knight - Disk 2\07 - Night Battle.wav

Pre-gap length 0:00:01.66

Peak level 94.4 % Track quality 100.0 % Copy CRC C9B5A323 Copy OK

Track 8

Filename C:\EAC Rips\Jerry Goldsmith - 1995 - First Knight - Disk 2\08 - Village Ruins.wav

Pre-gap length 0:00:02.26

Peak level 75.9 % Track quality 100.0 % Copy CRC F75A4796 Copy OK

Track 9

Filename C:\EAC Rips\Jerry Goldsmith - 1995 - First Knight - Disk 2\09 - Arthur's Farewell.wav

Pre-gap length 0:00:02.22

Peak level 92.3 % Track quality 100.0 % Copy CRC 994D7DA9 Copy OK

Track 10

Filename C:\EAC Rips\Jerry Goldsmith - 1995 - First Knight - Disk 2\10 - Camelot Lives.wav

Pre-gap length 0:00:02.01

Peak level 94.4 % Track quality 100.0 % Copy CRC 1AD0D09C Copy OK

Track 11

Filename C:\EAC Rips\Jerry Goldsmith - 1995 - First Knight - Disk 2\11 - The Ambush - First Sight - Alternate.wav

Pre-gap length 0:00:04.81

Peak level 94.4 % Track quality 99.9 % Copy CRC 0C94FC95 Copy OK

Track 12

Filename C:\EAC Rips\Jerry Goldsmith - 1995 - First Knight - Disk 2\12 - Boat Trip - Alternate.wav

Pre-gap length 0:00:01.60

Peak level 91.3 % Track quality 100.0 % Copy CRC 29FFFC47 Copy OK

Track 13

Filename C:\EAC Rips\Jerry Goldsmith - 1995 - First Knight - Disk 2\13 - A New Life - Alternate.wav

Pre-gap length 0:00:01.74

Peak level 72.8 % Track quality 100.0 % Copy CRC ED474772 Copy OK

Track 14

Filename C:\EAC Rips\Jerry Goldsmith - 1995 - First Knight - Disk 2\14 - A New Life - Alternate #2.wav

Pre-gap length 0:00:03.73

Peak level 95.0 % Track quality 100.0 % Copy CRC 0971F96E Copy OK

Track 15

Filename C:\EAC Rips\Jerry Goldsmith - 1995 - First Knight - Disk 2\15 - To Leonesse - Alternate.wav

Pre-gap length 0:00:02.25

Peak level 78.1 % Track quality 99.9 % Copy CRC 4054E307 Copy OK

Track 16

Filename C:\EAC Rips\Jerry Goldsmith - 1995 - First Knight - Disk 2\16 - Village Ruins - Alternate.wav

Pre-gap length 0:00:03.41

Peak level 91.1 % Track quality 100.0 % Copy CRC BEABBFE0 Copy OK

Track 17

Filename C:\EAC Rips\Jerry Goldsmith - 1995 - First Knight - Disk 2\17 - Never Surrender - Alternate.wav

Pre-gap length 0:00:01.58

Peak level 85.9 % Track quality 100.0 % Copy CRC 333E03A2 Copy OK

No errors occurred

End of status report
 
REM GENRE SoundtrackREM DATE 2011REM DISCID E50FE711REM COMMENT "ExactAudioCopy v0.99pb5"FILE "01 - Arthur's Fanfare.wav" WAVE TRACK 01 AUDIO INDEX 01 00:00:00 TRACK 02 AUDIO INDEX 00 00:45:26FILE "02 - Promise Me.wav" WAVE INDEX 01 00:00:00 TRACK 03 AUDIO INDEX 00 04:04:13FILE "03 - Camelot.wav" WAVE INDEX 01 00:00:00 TRACK 04 AUDIO INDEX 00 02:19:54FILE "04 - Raid On Leonesse.wav" WAVE INDEX 01 00:00:00 TRACK 05 AUDIO INDEX 00 04:26:02FILE "05 - A New Life.wav" WAVE INDEX 01 00:00:00 TRACK 06 AUDIO INDEX 00 04:54:14FILE "06 - To Leonesse.wav" WAVE INDEX 01 00:00:00 TRACK 07 AUDIO INDEX 00 03:25:30FILE "07 - Night Battle.wav" WAVE INDEX 01 00:00:00 TRACK 08 AUDIO INDEX 00 05:39:16FILE "08 - Village Ruins.wav" WAVE INDEX 01 00:00:00 TRACK 09 AUDIO INDEX 00 03:20:02FILE "09 - Arthur's Farewell.wav" WAVE INDEX 01 00:00:00 TRACK 10 AUDIO INDEX 00 05:25:09FILE "10 - Camelot Lives.wav" WAVE INDEX 01 00:00:00 TRACK 11 AUDIO INDEX 00 05:40:45FILE "11 - The Ambush - First Sight - Alternate.wav" WAVE INDEX 01 00:00:00 TRACK 12 AUDIO INDEX 00 05:46:05FILE "12 - Boat Trip - Alternate.wav" WAVE INDEX 01 00:00:00 TRACK 13 AUDIO INDEX 00 01:05:61FILE "13 - A New Life - Alternate.wav" WAVE INDEX 01 00:00:00 TRACK 14 AUDIO INDEX 00 05:37:44FILE "14 - A New Life - Alternate #2.wav" WAVE INDEX 01 00:00:00 TRACK 15 AUDIO INDEX 00 03:14:59FILE "15 - To Leonesse - Alternate.wav" WAVE INDEX 01 00:00:00 TRACK 16 AUDIO INDEX 00 02:40:73FILE "16 - Village Ruins - Alternate.wav" WAVE INDEX 01 00:00:00 TRACK 17 AUDIO INDEX 00 03:29:51FILE "17 - Never Surrender - Alternate.wav" WAVE INDEX 01 00:00:00
 
Started at: понедельник, 14. 11. 2011. - 3:07.40

17 files found

01 -===- C:\!_TORRENT\Jerry Goldsmith - First Knight (Limited) (2011) [FLAC]\CD2\01 - Arthur's Fanfare.flac Extracted successfully Conclusion: This track looks like CDDA with probability 100% Tempfile successfully deleted.

02 -===- C:\!_TORRENT\Jerry Goldsmith - First Knight (Limited) (2011) [FLAC]\CD2\02 - Promise Me.flac Extracted successfully Conclusion: This track looks like CDDA with probability 100% Tempfile successfully deleted.

03 -===- C:\!_TORRENT\Jerry Goldsmith - First Knight (Limited) (2011) [FLAC]\CD2\03 - Camelot.flac Extracted successfully Conclusion: This track looks like CDDA with probability 100% Tempfile successfully deleted.

04 -===- C:\!_TORRENT\Jerry Goldsmith - First Knight (Limited) (2011) [FLAC]\CD2\04 - Raid On Leonesse.flac Extracted successfully Conclusion: This track looks like CDDA with probability 100% Tempfile successfully deleted.

05 -===- C:\!_TORRENT\Jerry Goldsmith - First Knight (Limited) (2011) [FLAC]\CD2\05 - A New Life.flac Extracted successfully Conclusion: This track looks like CDDA with probability 100% Tempfile successfully deleted.

06 -===- C:\!_TORRENT\Jerry Goldsmith - First Knight (Limited) (2011) [FLAC]\CD2\06 - To Leonesse.flac Extracted successfully Conclusion: This track looks like CDDA with probability 100% Tempfile successfully deleted.

07 -===- C:\!_TORRENT\Jerry Goldsmith - First Knight (Limited) (2011) [FLAC]\CD2\07 - Night Battle.flac Extracted successfully Conclusion: This track looks like CDDA with probability 100% Tempfile successfully deleted.

08 -===- C:\!_TORRENT\Jerry Goldsmith - First Knight (Limited) (2011) [FLAC]\CD2\08 - Village Ruins.flac Extracted successfully Conclusion: This track looks like CDDA with probability 100% Tempfile successfully deleted.

09 -===- C:\!_TORRENT\Jerry Goldsmith - First Knight (Limited) (2011) [FLAC]\CD2\09 - Arthur's Farewell.flac Extracted successfully Conclusion: This track looks like CDDA with probability 99% Tempfile successfully deleted.

10 -===- C:\!_TORRENT\Jerry Goldsmith - First Knight (Limited) (2011) [FLAC]\CD2\10 - Camelot Lives.flac Extracted successfully Conclusion: This track looks like CDDA with probability 99% Tempfile successfully deleted.

11 -===- C:\!_TORRENT\Jerry Goldsmith - First Knight (Limited) (2011) [FLAC]\CD2\11 - The Ambush - First Sight - Alternate.flac Extracted successfully Conclusion: This track looks like CDDA with probability 100% Tempfile successfully deleted.

12 -===- C:\!_TORRENT\Jerry Goldsmith - First Knight (Limited) (2011) [FLAC]\CD2\12 - Boat Trip - Alternate.flac Extracted successfully Conclusion: This track looks like CDDA with probability 100% Tempfile successfully deleted.

13 -===- C:\!_TORRENT\Jerry Goldsmith - First Knight (Limited) (2011) [FLAC]\CD2\13 - A New Life - Alternate.flac Extracted successfully Conclusion: This track looks like CDDA with probability 100% Tempfile successfully deleted.

14 -===- C:\!_TORRENT\Jerry Goldsmith - First Knight (Limited) (2011) [FLAC]\CD2\14 - A New Life - Alternate #2.flac Extracted successfully Conclusion: This track looks like CDDA with probability 99% Tempfile successfully deleted.

15 -===- C:\!_TORRENT\Jerry Goldsmith - First Knight (Limited) (2011) [FLAC]\CD2\15 - To Leonesse - Alternate.flac Extracted successfully Conclusion: This track looks like CDDA with probability 100% Tempfile successfully deleted.

16 -===- C:\!_TORRENT\Jerry Goldsmith - First Knight (Limited) (2011) [FLAC]\CD2\16 - Village Ruins - Alternate.flac Extracted successfully Conclusion: This track looks like CDDA with probability 100% Tempfile successfully deleted.

17 -===- C:\!_TORRENT\Jerry Goldsmith - First Knight (Limited) (2011) [FLAC]\CD2\17 - Never Surrender - Alternate.flac Extracted successfully Conclusion: This track looks like CDDA with probability 100% Tempfile successfully deleted.

Finished at: понедельник, 14. 11. 2011. - 3:14.27 (operation time: 0:06.46)


Трекер:  [ 14-Ноя-2011 21:29 ]

  

Скачать .torrent

Размер .torrent файла 17 KB


Размер: 717 MB
Хэш (hash) релиза: 1aaf89b85295c75eefeedb3ae7c7076faddba5e6

Торренты, похожие на Первый рыцарь First Knight скачать торрент

Форум Название Автор Размер S L Добавлен
Саундтреки к фильмам и мультфильмам (mp3) ·· (Score) Первый рыцарь / First Knight (by Jerry Goldsmith) [Expanded, 2CD] - 2011 (1995), MP3, 320 kbps Mos 352369902336 MB 0 0 1321063244

05:00

12-Ноя-11

Еще никто не оставлял запись к записи скачать торрент Первый рыцарь First Knight . Будь первым!

!Обратная связь