Скачать через торрент музыку Music For A Darkened Theatre - Film & Television Music бесплатно без регистрации torrent

Если у вас наблюдаются проблемы со скриншотами, переходом по ссылками, скачиванием торрентов - проблемы в блокировщике рекламы AdBlock. #хорошегоДня!


Статистика раздачи
Размер:  1.06 GB   |    Зарегистрирован:  5 лет 10 месяцев   |    .torrent скачан:  31 раз   |   
Раздают:  1  
   
Загрузка...
 
Автор Сообщение

Galfimbul

avatar Galfimbul


Music For A Darkened Theatre - Film & Television Music
Volume 1&2
Music by Danny Elfman

Жанр: Score | Годы выпуска дисков: 1990-1996
Аудиокодек: FLAC (*.flac) | Тип рипа: tracks+.cue | Битрейт аудио: lossless
Общая продолжительность: 03:39:09
Источник: WhatCD
Год выпуска диска: 1990
Издатель (лейбл): MCA Records
Номер по каталогу: MCAD 10065
Продолжительность: 01:13:19

<div style="margin-left: 2em">01. Pee Wee's Big Adventure [07:01]
02. Batman [08:25]
03. Dick Tracy [03:03]
04. Beetlejuice [03:43]
05. Nightbreed [07:03]
06. Darkman [06:55]
07. Back To School [01:30]
08. Midnight Run [04:42]
09. Wisdom [04:39]
10. Hot To Trot [02:22]
11. Big Top Pee Wee [05:24]
12. The Simpsons [01:30]
13. Alfred Hitchcock Presents: The Jar [03:20]
14. Tales From The Crypt [01:29]
15. Face Like A Frog [02:08]
16. Forbidden Zone [01:16]
17. Scrooged [08:42]</div>
 
Exact Audio Copy V0.99 prebeta 4 from 23. January 2008

EAC extraction logfile from 7. February 2009, 17:51

Danny Elfman / Music For A Darkened Theatre - Film & Television Music - Vol. 1

Used drive : LITE-ON DVDRW LH-20A1P Adapter: 2 ID: 0

Read mode : SecureUtilize accurate stream : YesDefeat audio cache : YesMake use of C2 pointers : No

Read offset correction : 6Overread into Lead-In and Lead-Out : NoFill up missing offset samples with silence : YesDelete leading and trailing silent blocks : NoNull samples used in CRC calculations : YesUsed interface : Native Win32 interface for Win NT & 2000Gap handling : Appended to previous track

Used output format : User Defined EncoderQuality : HighAdd ID3 tag : NoCommand line compressor : flac.exeAdditional command line options : -V -8 -T "artist=%a" -T "title=%t" -T "album=%g" -T "date=%y" -T "tracknumber=%n" -T "genre=%m" %s

TOC of the extracted CD

Track | Start | Length | Start sector | End sector --------------------------------------------------------- 1 | 0:00.00 | 7:01.62 | 0 | 31636 2 | 7:01.62 | 8:25.20 | 31637 | 69531 3 | 15:27.07 | 3:03.65 | 69532 | 83321 4 | 18:30.72 | 3:43.03 | 83322 | 100049 5 | 22:14.00 | 7:03.27 | 100050 | 131801 6 | 29:17.27 | 6:55.03 | 131802 | 162929 7 | 36:12.30 | 1:30.17 | 162930 | 169696 8 | 37:42.47 | 4:42.43 | 169697 | 190889 9 | 42:25.15 | 4:39.55 | 190890 | 211869 10 | 47:04.70 | 2:22.12 | 211870 | 222531 11 | 49:27.07 | 5:24.28 | 222532 | 246859 12 | 54:51.35 | 1:30.65 | 246860 | 253674 13 | 56:22.25 | 3:20.47 | 253675 | 268721 14 | 59:42.72 | 1:29.20 | 268722 | 275416 15 | 61:12.17 | 2:08.48 | 275417 | 285064 16 | 63:20.65 | 1:16.37 | 285065 | 290801 17 | 64:37.27 | 8:42.08 | 290802 | 329959

Track 1

Filename 01 - Danny Elfman - Pee Wee's Big Adventure.wav

Pre-gap length 0:00:02.00

Peak level 88.1 % Track quality 100.0 % Test CRC 01A74682 Copy CRC 01A74682 Accurately ripped (confidence 13) [610161E5] Copy OK

Track 2

Filename 02 - Danny Elfman - Batman.wav

Pre-gap length 0:00:02.07

Peak level 98.8 % Track quality 100.0 % Test CRC 4C6CBBA1 Copy CRC 4C6CBBA1 Accurately ripped (confidence 13) [03A39DE1] Copy OK

Track 3

Filename 03 - Danny Elfman - Dick Tracy.wav

Pre-gap length 0:00:01.65

Peak level 98.8 % Track quality 100.0 % Test CRC B6914268 Copy CRC B6914268 Accurately ripped (confidence 13) [DA34A185] Copy OK

Track 4

Filename 04 - Danny Elfman - Beetlejuice.wav

Pre-gap length 0:00:02.62

Peak level 88.9 % Track quality 100.0 % Test CRC 30240FC3 Copy CRC 30240FC3 Accurately ripped (confidence 13) [A5B2AA98] Copy OK

Track 5

Filename 05 - Danny Elfman - Nightbreed.wav

Pre-gap length 0:00:02.28

Peak level 97.2 % Track quality 99.9 % Test CRC E1531E3D Copy CRC E1531E3D Accurately ripped (confidence 13) [090F6B00] Copy OK

Track 6

Filename 06 - Danny Elfman - Darkman.wav

Pre-gap length 0:00:02.47

Peak level 98.8 % Track quality 100.0 % Test CRC DDFA493B Copy CRC DDFA493B Accurately ripped (confidence 13) [A7682999] Copy OK

Track 7

Filename 07 - Danny Elfman - Back To School.wav

Pre-gap length 0:00:02.58

Peak level 70.2 % Track quality 100.0 % Test CRC 90637CC4 Copy CRC 90637CC4 Accurately ripped (confidence 13) [EDE6AB45] Copy OK

Track 8

Filename 08 - Danny Elfman - Midnight Run.wav

Pre-gap length 0:00:02.10

Peak level 88.1 % Track quality 99.9 % Test CRC EC3E74C1 Copy CRC EC3E74C1 Accurately ripped (confidence 13) [A2CA70EE] Copy OK

Track 9

Filename 09 - Danny Elfman - Wisdom.wav

Pre-gap length 0:00:01.05

Peak level 88.1 % Track quality 100.0 % Test CRC 23B5A8A0 Copy CRC 23B5A8A0 Accurately ripped (confidence 13) [EF525AAE] Copy OK

Track 10

Filename 10 - Danny Elfman - Hot To Trot.wav

Pre-gap length 0:00:02.33

Peak level 64.6 % Track quality 100.0 % Test CRC FD67C4A4 Copy CRC FD67C4A4 Accurately ripped (confidence 13) [9D9F054A] Copy OK

Track 11

Filename 11 - Danny Elfman - Big Top Pee Wee.wav

Pre-gap length 0:00:02.12

Peak level 93.1 % Track quality 100.0 % Test CRC 1B70E490 Copy CRC 1B70E490 Accurately ripped (confidence 13) [22D29585] Copy OK

Track 12

Filename 12 - Danny Elfman - The Simpsons.wav

Pre-gap length 0:00:02.00

Peak level 98.8 % Track quality 100.0 % Test CRC 94AE5DD3 Copy CRC 94AE5DD3 Accurately ripped (confidence 13) [E93078E9] Copy OK

Track 13

Filename 13 - Danny Elfman - Alfred Hitchcock Presents- The Jar.wav

Pre-gap length 0:00:01.58

Peak level 58.0 % Track quality 100.0 % Test CRC E4B71A19 Copy CRC E4B71A19 Accurately ripped (confidence 13) [89782EE1] Copy OK

Track 14

Filename 14 - Danny Elfman - Tales From The Crypt.wav

Pre-gap length 0:00:01.70

Peak level 91.2 % Track quality 100.0 % Test CRC DF601B2D Copy CRC DF601B2D Accurately ripped (confidence 13) [C4D3B25E] Copy OK

Track 15

Filename 15 - Danny Elfman - Face Like A Frog.wav

Pre-gap length 0:00:02.30

Peak level 67.6 % Track quality 100.0 % Test CRC 792B1DFA Copy CRC 792B1DFA Accurately ripped (confidence 12) [B035738E] Copy OK

Track 16

Filename 16 - Danny Elfman - Forbidden Zone.wav

Pre-gap length 0:00:01.38

Peak level 39.2 % Track quality 100.0 % Test CRC BB37A676 Copy CRC BB37A676 Accurately ripped (confidence 13) [4EB4B081] Copy OK

Track 17

Filename 17 - Danny Elfman - Scrooged.wav

Pre-gap length 0:00:02.20

Peak level 90.8 % Track quality 100.0 % Test CRC 08B2175A Copy CRC 08B2175A Accurately ripped (confidence 10) [9A0E52A9] Copy OK

All tracks accurately ripped

No errors occurred

End of status report
 
REM GENRE SoundtrackREM DATE 1990REM DISCID 15112F11REM COMMENT "ExactAudioCopy v0.99pb4"PERFORMER "Danny Elfman"TITLE "Music For A Darkened Theatre - Film & Television Music - Vol. 1"FILE "01 - Danny Elfman - Pee Wee's Big Adventure.wav" WAVE TRACK 01 AUDIO TITLE "Pee Wee's Big Adventure" PERFORMER "Danny Elfman" INDEX 01 00:00:00 TRACK 02 AUDIO TITLE "Batman" PERFORMER "Danny Elfman" INDEX 00 06:59:55FILE "02 - Danny Elfman - Batman.wav" WAVE INDEX 01 00:00:00 TRACK 03 AUDIO TITLE "Dick Tracy" PERFORMER "Danny Elfman" INDEX 00 08:23:30FILE "03 - Danny Elfman - Dick Tracy.wav" WAVE INDEX 01 00:00:00 TRACK 04 AUDIO TITLE "Beetlejuice" PERFORMER "Danny Elfman" INDEX 00 03:01:03FILE "04 - Danny Elfman - Beetlejuice.wav" WAVE INDEX 01 00:00:00 TRACK 05 AUDIO TITLE "Nightbreed" PERFORMER "Danny Elfman" INDEX 00 03:40:50FILE "05 - Danny Elfman - Nightbreed.wav" WAVE INDEX 01 00:00:00 TRACK 06 AUDIO TITLE "Darkman" PERFORMER "Danny Elfman" INDEX 00 07:00:55FILE "06 - Danny Elfman - Darkman.wav" WAVE INDEX 01 00:00:00 TRACK 07 AUDIO TITLE "Back To School" PERFORMER "Danny Elfman" INDEX 00 06:52:20FILE "07 - Danny Elfman - Back To School.wav" WAVE INDEX 01 00:00:00 TRACK 08 AUDIO TITLE "Midnight Run" PERFORMER "Danny Elfman" INDEX 00 01:28:07FILE "08 - Danny Elfman - Midnight Run.wav" WAVE INDEX 01 00:00:00 TRACK 09 AUDIO TITLE "Wisdom" PERFORMER "Danny Elfman" INDEX 00 04:41:38FILE "09 - Danny Elfman - Wisdom.wav" WAVE INDEX 01 00:00:00 TRACK 10 AUDIO TITLE "Hot To Trot" PERFORMER "Danny Elfman" INDEX 00 04:37:22FILE "10 - Danny Elfman - Hot To Trot.wav" WAVE INDEX 01 00:00:00 TRACK 11 AUDIO TITLE "Big Top Pee Wee" PERFORMER "Danny Elfman" INDEX 00 02:20:00FILE "11 - Danny Elfman - Big Top Pee Wee.wav" WAVE INDEX 01 00:00:00 TRACK 12 AUDIO TITLE "The Simpsons" PERFORMER "Danny Elfman" INDEX 00 05:22:28FILE "12 - Danny Elfman - The Simpsons.wav" WAVE INDEX 01 00:00:00 TRACK 13 AUDIO TITLE "Alfred Hitchcock Presents: The Jar" PERFORMER "Danny Elfman" INDEX 00 01:29:07FILE "13 - Danny Elfman - Alfred Hitchcock Presents- The Jar.wav" WAVE INDEX 01 00:00:00 TRACK 14 AUDIO TITLE "Tales From The Crypt" PERFORMER "Danny Elfman" INDEX 00 03:18:52FILE "14 - Danny Elfman - Tales From The Crypt.wav" WAVE INDEX 01 00:00:00 TRACK 15 AUDIO TITLE "Face Like A Frog" PERFORMER "Danny Elfman" INDEX 00 01:26:65FILE "15 - Danny Elfman - Face Like A Frog.wav" WAVE INDEX 01 00:00:00 TRACK 16 AUDIO TITLE "Forbidden Zone" PERFORMER "Danny Elfman" INDEX 00 02:07:10FILE "16 - Danny Elfman - Forbidden Zone.wav" WAVE INDEX 01 00:00:00 TRACK 17 AUDIO TITLE "Scrooged" PERFORMER "Danny Elfman" INDEX 00 01:14:17FILE "17 - Danny Elfman - Scrooged.wav" WAVE INDEX 01 00:00:00
Год выпуска диска: 1996
Издатель (лейбл): MCA Records
Номер по каталогу: MCAD2 11550
Продолжительность: 01:11:33 + 01:14:16

CD1
<div style="margin-left: 2em">01. Main Titles (Edward Scissorhands) [02:36]
02. Storytime (Edward Scissorhands) [02:35]
03. Suite (Edward Scissorhands) [04:19]
04. Suburbia - Barber (Edward Scissorhands) [03:05]
05. The Grand Finale (Edward Scissorhands) [03:26]
06. Main Titles (Dolores Claiborne) [02:44]
07. Vera's World (Dolores Claiborne) [02:35]
08. Flashback (Dolores Claiborne) [01:32]
09. Sad Room (Dolores Claiborne) [00:51]
10. End Titles (Dolores Claiborne) [04:48]
11. Main Titles (To Die For) [04:08]
12. Suzie's Theme (To Die For) [01:40]
13. Busted (To Die For) [02:01]
14. Wheepy Donuts (To Die For) [01:49]
15. Finale (To Die For) [01:18]
16. Main Titles (Black Beauty) [02:27]
17. Baby Beauty (Black Beauty) [03:11]
18. Jump For Joy (Black Beauty) [00:57]
19. Frolick - Sick (Black Beauty) [04:03]
20. Bye Bye Jerry (Black Beauty) [02:27]
21. Memories (Black Beauty) [01:28]
22. End Titles (Black Beauty) [01:37]
23. Birth Of A Penguin (Batman Returns) [05:36]
24. Trouble Suite (Batman Returns) [02:15]
25. The Finale (Batman Returns) [03:13]
26. End Titles (Batman Returns) [04:41]</div>

CD2
<div style="margin-left: 2em">01. Trouble (Mission Impossible) [03:20]
02. Looking For A Job (Mission Impossible) [03:53]
03. Betrayal (Mission Impossible) [02:56]
04. Main Titles (Sommersby) [04:40]
05. Return Montage (Sommersby) [04:26]
06. Finale - End Titles (Sommersby) [07:21]
07. Main Titles (Dead Presidents) [04:01]
08. Daughter (Dead Presidents) [01:24]
09. Montage (Dead Presidents) [02:17]
10. Nam (Dead Presidents) [05:49]
11. Nightmare (Dead Presidents) [01:17]
12. Overture (Nightmare Before Christmas) [01:47]
13. Jack And Sally Suite (Nightmare Before Christmas) [05:03]
14. Christmas Eve Montage (Nightmare Before Christmas) [02:10]
15. Main Titles (Freeway) [02:44]
16. On The Road (Freeway) [02:58]
17. Back In The Car (Freeway) [01:20]
18. Main Titles (Shrunken Heads) [01:54]
19. Family Dog - Part 1 (Amazing Stories) [00:52]
20. Family Dog - Part 2 (Amazing Stories) [01:28]
21. Mummy, Daddy (Amazing Stories) [02:23]
22. Nike Commercial (Barkley Superhero) [00:31]
23. Theme (The Flash) [01:32]
24. Suite - Part 1 (Pee Wee's Playhouse) [00:34]
25. Suite - Part 2 (Pee Wee's Playhouse) [01:09]
26. Suite - Part 3 (Pee Wee's Playhouse) [00:24]
27. Suite - Part 4 (Pee Wee's Playhouse) [01:27]
28. Theme (Beetlejuice Animated Series) [01:02]
29. This Is Halloween (Original Demo For Nightmare Before Christmas) [03:19]</div>
 
Exact Audio Copy V0.99 prebeta 5 from 4. May 2009

EAC extraction logfile from 29. January 2010, 9:16

Danny Elfman / Music For A Darkened Theatre (Vol. 2) (CD1)

Used drive : SONY CD-RW CRX195E1 Adapter: 1 ID: 0

Read mode : SecureUtilize accurate stream : YesDefeat audio cache : YesMake use of C2 pointers : No

Read offset correction : 12Overread into Lead-In and Lead-Out : NoFill up missing offset samples with silence : YesDelete leading and trailing silent blocks : NoNull samples used in CRC calculations : YesUsed interface : Native Win32 interface for Win NT & 2000Gap handling : Appended to previous track

Used output format : User Defined EncoderSelected bitrate : 128 kBit/sQuality : HighAdd ID3 tag : NoCommand line compressor : C:\Program Files\Exact Audio Copy\Flac\flac.exeAdditional command line options : -V -8 -T "artist=%a" -T "title=%t" -T "album=%g" -T "date=%y" -T "tracknumber=%n" -T "genre=%m" %s

TOC of the extracted CD

Track | Start | Length | Start sector | End sector --------------------------------------------------------- 1 | 0:00.00 | 2:36.30 | 0 | 11729 2 | 2:36.30 | 2:35.00 | 11730 | 23354 3 | 5:11.30 | 4:19.12 | 23355 | 42791 4 | 9:30.42 | 3:05.10 | 42792 | 56676 5 | 12:35.52 | 3:26.35 | 56677 | 72161 6 | 16:02.12 | 2:44.45 | 72162 | 84506 7 | 18:46.57 | 2:35.45 | 84507 | 96176 8 | 21:22.27 | 1:32.40 | 96177 | 103116 9 | 22:54.67 | 0:51.10 | 103117 | 106951 10 | 23:46.02 | 4:48.13 | 106952 | 128564 11 | 28:34.15 | 4:08.52 | 128565 | 147216 12 | 32:42.67 | 1:40.58 | 147217 | 154774 13 | 34:23.50 | 2:01.59 | 154775 | 163908 14 | 36:25.34 | 1:49.33 | 163909 | 172116 15 | 38:14.67 | 1:18.65 | 172117 | 178031 16 | 39:33.57 | 2:27.55 | 178032 | 189111 17 | 42:01.37 | 3:11.35 | 189112 | 203471 18 | 45:12.72 | 0:57.15 | 203472 | 207761 19 | 46:10.12 | 4:03.30 | 207762 | 226016 20 | 50:13.42 | 2:27.55 | 226017 | 237096 21 | 52:41.22 | 1:28.00 | 237097 | 243696 22 | 54:09.22 | 1:37.00 | 243697 | 250971 23 | 55:46.22 | 5:36.50 | 250972 | 276221 24 | 61:22.72 | 2:15.33 | 276222 | 286379 25 | 63:38.30 | 3:13.22 | 286380 | 300876 26 | 66:51.52 | 4:41.65 | 300877 | 322016

Track 1

Filename C:\EACrips\Danny Elfman - Music For A Darkened Theatre (Vol. 2) (CD1) (1996) [FLAC]\01 - Main Titles (Edward Scissorhands).wav

Pre-gap length 0:00:02.00

Peak level 90.0 % Track quality 99.9 % Test CRC DEA9144F Copy CRC DEA9144F Accurately ripped (confidence 31) [0D77B894] Copy OK

Track 2

Filename C:\EACrips\Danny Elfman - Music For A Darkened Theatre (Vol. 2) (CD1) (1996) [FLAC]\02 - Storytime (Edward Scissorhands).wav

Peak level 85.0 % Track quality 100.0 % Test CRC 6638EDBB Copy CRC 6638EDBB Accurately ripped (confidence 30) [5109FA35] Copy OK

Track 3

Filename C:\EACrips\Danny Elfman - Music For A Darkened Theatre (Vol. 2) (CD1) (1996) [FLAC]\03 - Suite (Edward Scissorhands).wav

Peak level 90.6 % Track quality 100.0 % Test CRC 0EFA18DB Copy CRC 0EFA18DB Accurately ripped (confidence 30) [BE789E17] Copy OK

Track 4

Filename C:\EACrips\Danny Elfman - Music For A Darkened Theatre (Vol. 2) (CD1) (1996) [FLAC]\04 - Suburbia - Barber (Edward Scissorhands).wav

Peak level 90.9 % Track quality 100.0 % Test CRC 8C41ECB4 Copy CRC 8C41ECB4 Accurately ripped (confidence 30) [0D486C0C] Copy OK

Track 5

Filename C:\EACrips\Danny Elfman - Music For A Darkened Theatre (Vol. 2) (CD1) (1996) [FLAC]\05 - The Grand Finale (Edward Scissorhands).wav

Peak level 91.0 % Track quality 100.0 % Test CRC C5AB184F Copy CRC C5AB184F Accurately ripped (confidence 30) [AEECB20B] Copy OK

Track 6

Filename C:\EACrips\Danny Elfman - Music For A Darkened Theatre (Vol. 2) (CD1) (1996) [FLAC]\06 - Main Titles (Dolores Claiborne).wav

Peak level 64.2 % Track quality 100.0 % Test CRC 956DE4D9 Copy CRC 956DE4D9 Accurately ripped (confidence 30) [691771A8] Copy OK

Track 7

Filename C:\EACrips\Danny Elfman - Music For A Darkened Theatre (Vol. 2) (CD1) (1996) [FLAC]\07 - Vera's World (Dolores Claiborne).wav

Peak level 74.4 % Track quality 100.0 % Test CRC 754425F1 Copy CRC 754425F1 Accurately ripped (confidence 30) [2173DD1F] Copy OK

Track 8

Filename C:\EACrips\Danny Elfman - Music For A Darkened Theatre (Vol. 2) (CD1) (1996) [FLAC]\08 - Flashback (Dolores Claiborne).wav

Peak level 41.6 % Track quality 100.0 % Test CRC 6DDD6A78 Copy CRC 6DDD6A78 Accurately ripped (confidence 30) [24A22733] Copy OK

Track 9

Filename C:\EACrips\Danny Elfman - Music For A Darkened Theatre (Vol. 2) (CD1) (1996) [FLAC]\09 - Sad Room (Dolores Claiborne).wav

Peak level 46.6 % Track quality 99.7 % Test CRC F66C3883 Copy CRC F66C3883 Accurately ripped (confidence 30) [7EC747BB] Copy OK

Track 10

Filename C:\EACrips\Danny Elfman - Music For A Darkened Theatre (Vol. 2) (CD1) (1996) [FLAC]\10 - End Titles (Dolores Claiborne).wav

Peak level 89.6 % Track quality 100.0 % Test CRC C0EE2108 Copy CRC C0EE2108 Accurately ripped (confidence 30) [B60FE63A] Copy OK

Track 11

Filename C:\EACrips\Danny Elfman - Music For A Darkened Theatre (Vol. 2) (CD1) (1996) [FLAC]\11 - Main Titles (To Die For).wav

Peak level 89.3 % Track quality 99.9 % Test CRC BF34E845 Copy CRC BF34E845 Accurately ripped (confidence 31) [9FB2FCF5] Copy OK

Track 12

Filename C:\EACrips\Danny Elfman - Music For A Darkened Theatre (Vol. 2) (CD1) (1996) [FLAC]\12 - Suzie's Theme (To Die For).wav

Peak level 87.4 % Track quality 100.0 % Test CRC 9F1E28EF Copy CRC 9F1E28EF Accurately ripped (confidence 31) [8A12E090] Copy OK

Track 13

Filename C:\EACrips\Danny Elfman - Music For A Darkened Theatre (Vol. 2) (CD1) (1996) [FLAC]\13 - Busted (To Die For).wav

Peak level 89.7 % Track quality 100.0 % Test CRC 5A349FBF Copy CRC 5A349FBF Accurately ripped (confidence 31) [687C90B8] Copy OK

Track 14

Filename C:\EACrips\Danny Elfman - Music For A Darkened Theatre (Vol. 2) (CD1) (1996) [FLAC]\14 - Wheepy Donuts (To Die For).wav

Peak level 81.2 % Track quality 100.0 % Test CRC CFC4D752 Copy CRC CFC4D752 Accurately ripped (confidence 31) [F69FDED6] Copy OK

Track 15

Filename C:\EACrips\Danny Elfman - Music For A Darkened Theatre (Vol. 2) (CD1) (1996) [FLAC]\15 - Finale (To Die For).wav

Peak level 41.3 % Track quality 100.0 % Test CRC 39B156A6 Copy CRC 39B156A6 Accurately ripped (confidence 31) [70E54CBB] Copy OK

Track 16

Filename C:\EACrips\Danny Elfman - Music For A Darkened Theatre (Vol. 2) (CD1) (1996) [FLAC]\16 - Main Titles (Black Beauty).wav

Peak level 85.8 % Track quality 99.9 % Test CRC 4982EF7E Copy CRC 4982EF7E Accurately ripped (confidence 31) [803631C5] Copy OK

Track 17

Filename C:\EACrips\Danny Elfman - Music For A Darkened Theatre (Vol. 2) (CD1) (1996) [FLAC]\17 - Baby Beauty (Black Beauty).wav

Peak level 49.8 % Track quality 100.0 % Test CRC 4214EC1B Copy CRC 4214EC1B Accurately ripped (confidence 31) [22646A51] Copy OK

Track 18

Filename C:\EACrips\Danny Elfman - Music For A Darkened Theatre (Vol. 2) (CD1) (1996) [FLAC]\18 - Jump For Joy (Black Beauty).wav

Peak level 89.6 % Track quality 100.0 % Test CRC 0443C9E8 Copy CRC 0443C9E8 Accurately ripped (confidence 31) [56B1B292] Copy OK

Track 19

Filename C:\EACrips\Danny Elfman - Music For A Darkened Theatre (Vol. 2) (CD1) (1996) [FLAC]\19 - Frolick - Sick (Black Beauty).wav

Peak level 54.1 % Track quality 99.9 % Test CRC 6065EF0F Copy CRC 6065EF0F Accurately ripped (confidence 31) [9936B453] Copy OK

Track 20

Filename C:\EACrips\Danny Elfman - Music For A Darkened Theatre (Vol. 2) (CD1) (1996) [FLAC]\20 - Bye Bye Jerry (Black Beauty).wav

Peak level 67.9 % Track quality 99.9 % Test CRC EB2BAA04 Copy CRC EB2BAA04 Accurately ripped (confidence 31) [53F80818] Copy OK

Track 21

Filename C:\EACrips\Danny Elfman - Music For A Darkened Theatre (Vol. 2) (CD1) (1996) [FLAC]\21 - Memories (Black Beauty).wav

Peak level 89.8 % Track quality 99.8 % Test CRC 135506AF Copy CRC 135506AF Accurately ripped (confidence 31) [0EE43AC0] Copy OK

Track 22

Filename C:\EACrips\Danny Elfman - Music For A Darkened Theatre (Vol. 2) (CD1) (1996) [FLAC]\22 - End Titles (Black Beauty).wav

Peak level 85.8 % Track quality 100.0 % Test CRC 9BEC06D3 Copy CRC 9BEC06D3 Accurately ripped (confidence 31) [6E86323D] Copy OK

Track 23

Filename C:\EACrips\Danny Elfman - Music For A Darkened Theatre (Vol. 2) (CD1) (1996) [FLAC]\23 - Birth Of A Penguin (Batman Returns).wav

Peak level 92.1 % Track quality 100.0 % Test CRC F4DFA5EF Copy CRC F4DFA5EF Accurately ripped (confidence 30) [EFD487B8] Copy OK

Track 24

Filename C:\EACrips\Danny Elfman - Music For A Darkened Theatre (Vol. 2) (CD1) (1996) [FLAC]\24 - Trouble Suite (Batman Returns).wav

Peak level 90.3 % Track quality 100.0 % Test CRC 8B8BA070 Copy CRC 8B8BA070 Accurately ripped (confidence 31) [CCA07CEC] Copy OK

Track 25

Filename C:\EACrips\Danny Elfman - Music For A Darkened Theatre (Vol. 2) (CD1) (1996) [FLAC]\25 - The Finale (Batman Returns).wav

Peak level 89.6 % Track quality 100.0 % Test CRC 292E5C9B Copy CRC 292E5C9B Accurately ripped (confidence 30) [568A7191] Copy OK

Track 26

Filename C:\EACrips\Danny Elfman - Music For A Darkened Theatre (Vol. 2) (CD1) (1996) [FLAC]\26 - End Titles (Batman Returns).wav

Peak level 88.6 % Track quality 100.0 % Test CRC E1267EEE Copy CRC E1267EEE Accurately ripped (confidence 30) [0D3E58CE] Copy OK

All tracks accurately ripped

No errors occurred

End of status report
 
REM GENRE SoundtrackREM DATE 1996REM DISCID 7610C51AREM COMMENT "ExactAudioCopy v0.99pb5"PERFORMER "Danny Elfman"TITLE "Music For A Darkened Theatre (Vol. 2) (CD1)"FILE "01 - Main Titles (Edward Scissorhands).wav" WAVE TRACK 01 AUDIO TITLE "Main Titles (Edward Scissorhands)" PERFORMER "Danny Elfman" ISRC USMC19034084 INDEX 01 00:00:00FILE "02 - Storytime (Edward Scissorhands).wav" WAVE TRACK 02 AUDIO TITLE "Storytime (Edward Scissorhands)" PERFORMER "Danny Elfman" ISRC USMC19034085 INDEX 01 00:00:00FILE "03 - Suite (Edward Scissorhands).wav" WAVE TRACK 03 AUDIO TITLE "Suite (Edward Scissorhands)" PERFORMER "Danny Elfman" ISRC USMC19651086 INDEX 01 00:00:00FILE "04 - Suburbia - Barber (Edward Scissorhands).wav" WAVE TRACK 04 AUDIO TITLE "Suburbia - Barber (Edward Scissorhands)" PERFORMER "Danny Elfman" ISRC USMC19651320 INDEX 01 00:00:00FILE "05 - The Grand Finale (Edward Scissorhands).wav" WAVE TRACK 05 AUDIO TITLE "The Grand Finale (Edward Scissorhands)" PERFORMER "Danny Elfman" ISRC USMC19034093 INDEX 01 00:00:00FILE "06 - Main Titles (Dolores Claiborne).wav" WAVE TRACK 06 AUDIO TITLE "Main Titles (Dolores Claiborne)" PERFORMER "Danny Elfman" INDEX 01 00:00:00FILE "07 - Vera's World (Dolores Claiborne).wav" WAVE TRACK 07 AUDIO TITLE "Vera's World (Dolores Claiborne)" PERFORMER "Danny Elfman" INDEX 01 00:00:00FILE "08 - Flashback (Dolores Claiborne).wav" WAVE TRACK 08 AUDIO TITLE "Flashback (Dolores Claiborne)" PERFORMER "Danny Elfman" INDEX 01 00:00:00FILE "09 - Sad Room (Dolores Claiborne).wav" WAVE TRACK 09 AUDIO TITLE "Sad Room (Dolores Claiborne)" PERFORMER "Danny Elfman" INDEX 01 00:00:00FILE "10 - End Titles (Dolores Claiborne).wav" WAVE TRACK 10 AUDIO TITLE "End Titles (Dolores Claiborne)" PERFORMER "Danny Elfman" INDEX 01 00:00:00FILE "11 - Main Titles (To Die For).wav" WAVE TRACK 11 AUDIO TITLE "Main Titles (To Die For)" PERFORMER "Danny Elfman" INDEX 01 00:00:00FILE "12 - Suzie's Theme (To Die For).wav" WAVE TRACK 12 AUDIO TITLE "Suzie's Theme (To Die For)" PERFORMER "Danny Elfman" INDEX 01 00:00:00FILE "13 - Busted (To Die For).wav" WAVE TRACK 13 AUDIO TITLE "Busted (To Die For)" PERFORMER "Danny Elfman" INDEX 01 00:00:00FILE "14 - Wheepy Donuts (To Die For).wav" WAVE TRACK 14 AUDIO TITLE "Wheepy Donuts (To Die For)" PERFORMER "Danny Elfman" INDEX 01 00:00:00FILE "15 - Finale (To Die For).wav" WAVE TRACK 15 AUDIO TITLE "Finale (To Die For)" PERFORMER "Danny Elfman" INDEX 01 00:00:00FILE "16 - Main Titles (Black Beauty).wav" WAVE TRACK 16 AUDIO TITLE "Main Titles (Black Beauty)" PERFORMER "Danny Elfman" INDEX 01 00:00:00FILE "17 - Baby Beauty (Black Beauty).wav" WAVE TRACK 17 AUDIO TITLE "Baby Beauty (Black Beauty)" PERFORMER "Danny Elfman" INDEX 01 00:00:00FILE "18 - Jump For Joy (Black Beauty).wav" WAVE TRACK 18 AUDIO TITLE "Jump For Joy (Black Beauty)" PERFORMER "Danny Elfman" INDEX 01 00:00:00FILE "19 - Frolick - Sick (Black Beauty).wav" WAVE TRACK 19 AUDIO TITLE "Frolick - Sick (Black Beauty)" PERFORMER "Danny Elfman" INDEX 01 00:00:00FILE "20 - Bye Bye Jerry (Black Beauty).wav" WAVE TRACK 20 AUDIO TITLE "Bye Bye Jerry (Black Beauty)" PERFORMER "Danny Elfman" INDEX 01 00:00:00FILE "21 - Memories (Black Beauty).wav" WAVE TRACK 21 AUDIO TITLE "Memories (Black Beauty)" PERFORMER "Danny Elfman" INDEX 01 00:00:00FILE "22 - End Titles (Black Beauty).wav" WAVE TRACK 22 AUDIO TITLE "End Titles (Black Beauty)" PERFORMER "Danny Elfman" INDEX 01 00:00:00FILE "23 - Birth Of A Penguin (Batman Returns).wav" WAVE TRACK 23 AUDIO TITLE "Birth Of A Penguin (Batman Returns)" PERFORMER "Danny Elfman" INDEX 01 00:00:00FILE "24 - Trouble Suite (Batman Returns).wav" WAVE TRACK 24 AUDIO TITLE "Trouble Suite (Batman Returns)" PERFORMER "Danny Elfman" INDEX 01 00:00:00FILE "25 - The Finale (Batman Returns).wav" WAVE TRACK 25 AUDIO TITLE "The Finale (Batman Returns)" PERFORMER "Danny Elfman" INDEX 01 00:00:00FILE "26 - End Titles (Batman Returns).wav" WAVE TRACK 26 AUDIO TITLE "End Titles (Batman Returns)" PERFORMER "Danny Elfman" INDEX 01 00:00:00
 
Exact Audio Copy V0.99 prebeta 5 from 4. May 2009

EAC extraction logfile from 29. January 2010, 23:55

Danny Elfman / Music For A Darkened Theatre (Vol. 2) (CD2)

Used drive : PBDS DVD+-RW DS-8W1P Adapter: 0 ID: 0

Read mode : SecureUtilize accurate stream : YesDefeat audio cache : YesMake use of C2 pointers : No

Read offset correction : 594Overread into Lead-In and Lead-Out : NoFill up missing offset samples with silence : YesDelete leading and trailing silent blocks : NoNull samples used in CRC calculations : YesUsed interface : Native Win32 interface for Win NT & 2000Gap handling : Appended to previous track

Used output format : User Defined EncoderSelected bitrate : 128 kBit/sQuality : HighAdd ID3 tag : NoCommand line compressor : C:\Program Files\Exact Audio Copy\Flac\flac.exeAdditional command line options : -V -8 -T "artist=%a" -T "title=%t" -T "album=%g" -T "date=%y" -T "tracknumber=%n" -T "genre=%m" %s

TOC of the extracted CD

Track | Start | Length | Start sector | End sector --------------------------------------------------------- 1 | 0:00.00 | 3:20.30 | 0 | 15029 2 | 3:20.30 | 3:53.72 | 15030 | 32576 3 | 7:14.27 | 2:56.55 | 32577 | 45831 4 | 10:11.07 | 4:40.05 | 45832 | 66836 5 | 14:51.12 | 4:26.10 | 66837 | 86796 6 | 19:17.22 | 7:21.13 | 86797 | 119884 7 | 26:38.35 | 4:01.62 | 119885 | 138021 8 | 30:40.22 | 1:24.60 | 138022 | 144381 9 | 32:05.07 | 2:17.43 | 144382 | 154699 10 | 34:22.50 | 5:49.59 | 154700 | 180933 11 | 40:12.34 | 1:17.41 | 180934 | 186749 12 | 41:30.00 | 1:47.34 | 186750 | 194808 13 | 43:17.34 | 5:03.23 | 194809 | 217556 14 | 48:20.57 | 2:10.55 | 217557 | 227361 15 | 50:31.37 | 2:44.43 | 227362 | 239704 16 | 53:16.05 | 2:58.60 | 239705 | 253114 17 | 56:14.65 | 1:20.70 | 253115 | 259184 18 | 57:35.60 | 1:54.57 | 259185 | 267791 19 | 59:30.42 | 0:52.40 | 267792 | 271731 20 | 60:23.07 | 1:28.50 | 271732 | 278381 21 | 61:51.57 | 2:23.23 | 278382 | 289129 22 | 64:15.05 | 0:31.17 | 289130 | 291471 23 | 64:46.22 | 1:32.38 | 291472 | 298409 24 | 66:18.60 | 0:34.50 | 298410 | 301009 25 | 66:53.35 | 1:09.67 | 301010 | 306251 26 | 68:03.27 | 0:24.18 | 306252 | 308069 27 | 68:27.45 | 1:27.12 | 308070 | 314606 28 | 69:54.57 | 1:02.33 | 314607 | 319289 29 | 70:57.15 | 3:19.42 | 319290 | 334256

Track 1

Filename C:\EACrips\Danny Elfman - Music For A Darkened Theatre (Vol. 2) (CD2) (1996) [FLAC]\01 - Trouble (Mission Impossible).wav

Pre-gap length 0:00:02.00

Peak level 89.4 % Track quality 100.0 % Test CRC 0685688C Copy CRC 0685688C Accurately ripped (confidence 26) [9FFA644B] Copy OK

Track 2

Filename C:\EACrips\Danny Elfman - Music For A Darkened Theatre (Vol. 2) (CD2) (1996) [FLAC]\02 - Looking For A Job (Mission Impossible).wav

Peak level 71.5 % Track quality 100.0 % Test CRC 71ECEF25 Copy CRC 71ECEF25 Accurately ripped (confidence 26) [4659E4F2] Copy OK

Track 3

Filename C:\EACrips\Danny Elfman - Music For A Darkened Theatre (Vol. 2) (CD2) (1996) [FLAC]\03 - Betrayal (Mission Impossible).wav

Peak level 80.4 % Track quality 100.0 % Test CRC 88E7E056 Copy CRC 88E7E056 Accurately ripped (confidence 26) [BB33C8F5] Copy OK

Track 4

Filename C:\EACrips\Danny Elfman - Music For A Darkened Theatre (Vol. 2) (CD2) (1996) [FLAC]\04 - Main Titles (Sommersby).wav

Peak level 88.3 % Track quality 100.0 % Test CRC AE1A3C13 Copy CRC AE1A3C13 Accurately ripped (confidence 25) [CF7DCD74] Copy OK

Track 5

Filename C:\EACrips\Danny Elfman - Music For A Darkened Theatre (Vol. 2) (CD2) (1996) [FLAC]\05 - Return Montage (Sommersby).wav

Peak level 72.6 % Track quality 100.0 % Test CRC B971731D Copy CRC B971731D Accurately ripped (confidence 26) [D1800BAF] Copy OK

Track 6

Filename C:\EACrips\Danny Elfman - Music For A Darkened Theatre (Vol. 2) (CD2) (1996) [FLAC]\06 - Finale - End Titles (Sommersby).wav

Peak level 93.3 % Track quality 100.0 % Test CRC C58D9203 Copy CRC C58D9203 Accurately ripped (confidence 26) [E925C3AE] Copy OK

Track 7

Filename C:\EACrips\Danny Elfman - Music For A Darkened Theatre (Vol. 2) (CD2) (1996) [FLAC]\07 - Main Titles (Dead Presidents).wav

Peak level 76.5 % Track quality 100.0 % Test CRC B51EF140 Copy CRC B51EF140 Accurately ripped (confidence 26) [3A955499] Copy OK

Track 8

Filename C:\EACrips\Danny Elfman - Music For A Darkened Theatre (Vol. 2) (CD2) (1996) [FLAC]\08 - Daughter (Dead Presidents).wav

Peak level 18.5 % Track quality 100.0 % Test CRC 01BBA860 Copy CRC 01BBA860 Accurately ripped (confidence 26) [F40BD665] Copy OK

Track 9

Filename C:\EACrips\Danny Elfman - Music For A Darkened Theatre (Vol. 2) (CD2) (1996) [FLAC]\09 - Montage (Dead Presidents).wav

Peak level 85.1 % Track quality 100.0 % Test CRC E4A4C408 Copy CRC E4A4C408 Accurately ripped (confidence 25) [76B0FE45] Copy OK

Track 10

Filename C:\EACrips\Danny Elfman - Music For A Darkened Theatre (Vol. 2) (CD2) (1996) [FLAC]\10 - Nam (Dead Presidents).wav

Peak level 79.2 % Track quality 100.0 % Test CRC 25132084 Copy CRC 25132084 Accurately ripped (confidence 25) [097C5099] Copy OK

Track 11

Filename C:\EACrips\Danny Elfman - Music For A Darkened Theatre (Vol. 2) (CD2) (1996) [FLAC]\11 - Nightmare (Dead Presidents).wav

Peak level 79.0 % Track quality 100.0 % Test CRC 209D5901 Copy CRC 209D5901 Accurately ripped (confidence 25) [66B732F3] Copy OK

Track 12

Filename C:\EACrips\Danny Elfman - Music For A Darkened Theatre (Vol. 2) (CD2) (1996) [FLAC]\12 - Overture (Nightmare Before Christmas).wav

Pre-gap length 0:00:01.17

Peak level 95.0 % Track quality 100.0 % Test CRC 041AC82F Copy CRC 041AC82F Accurately ripped (confidence 26) [2DD57FA3] Copy OK

Track 13

Filename C:\EACrips\Danny Elfman - Music For A Darkened Theatre (Vol. 2) (CD2) (1996) [FLAC]\13 - Jack And Sally Suite (Nightmare Before Christmas).wav

Peak level 92.4 % Track quality 100.0 % Test CRC 5A767810 Copy CRC 5A767810 Accurately ripped (confidence 26) [A1D85F50] Copy OK

Track 14

Filename C:\EACrips\Danny Elfman - Music For A Darkened Theatre (Vol. 2) (CD2) (1996) [FLAC]\14 - Christmas Eve Montage (Nightmare Before Christmas).wav

Peak level 92.4 % Track quality 100.0 % Test CRC 7372AC23 Copy CRC 7372AC23 Accurately ripped (confidence 26) [056436FA] Copy OK

Track 15

Filename C:\EACrips\Danny Elfman - Music For A Darkened Theatre (Vol. 2) (CD2) (1996) [FLAC]\15 - Main Titles (Freeway).wav

Peak level 88.8 % Track quality 100.0 % Test CRC 5652A903 Copy CRC 5652A903 Accurately ripped (confidence 26) [F6C3617A] Copy OK

Track 16

Filename C:\EACrips\Danny Elfman - Music For A Darkened Theatre (Vol. 2) (CD2) (1996) [FLAC]\16 - On The Road (Freeway).wav

Peak level 86.5 % Track quality 100.0 % Test CRC 5C4CFE2E Copy CRC 5C4CFE2E Accurately ripped (confidence 26) [75F43C31] Copy OK

Track 17

Filename C:\EACrips\Danny Elfman - Music For A Darkened Theatre (Vol. 2) (CD2) (1996) [FLAC]\17 - Back In The Car (Freeway).wav

Peak level 42.7 % Track quality 100.0 % Test CRC 201A021A Copy CRC 201A021A Accurately ripped (confidence 26) [A1316877] Copy OK

Track 18

Filename C:\EACrips\Danny Elfman - Music For A Darkened Theatre (Vol. 2) (CD2) (1996) [FLAC]\18 - Main Titles (Shrunken Heads).wav

Pre-gap length 0:00:01.66

Peak level 88.8 % Track quality 100.0 % Test CRC C715E9C0 Copy CRC C715E9C0 Accurately ripped (confidence 27) [7CF3B055] Copy OK

Track 19

Filename C:\EACrips\Danny Elfman - Music For A Darkened Theatre (Vol. 2) (CD2) (1996) [FLAC]\19 - Family Dog - Part 1 (Amazing Stories).wav

Peak level 77.9 % Track quality 100.0 % Test CRC 8A696D4E Copy CRC 8A696D4E Accurately ripped (confidence 27) [82A9833B] Copy OK

Track 20

Filename C:\EACrips\Danny Elfman - Music For A Darkened Theatre (Vol. 2) (CD2) (1996) [FLAC]\20 - Family Dog - Part 2 (Amazing Stories).wav

Peak level 81.2 % Track quality 99.8 % Test CRC 94EF455B Copy CRC 94EF455B Accurately ripped (confidence 27) [C1AD2836] Copy OK

Track 21

Filename C:\EACrips\Danny Elfman - Music For A Darkened Theatre (Vol. 2) (CD2) (1996) [FLAC]\21 - Mummy, Daddy (Amazing Stories).wav

Peak level 82.7 % Track quality 100.0 % Test CRC F06BDBC5 Copy CRC F06BDBC5 Accurately ripped (confidence 27) [493DF073] Copy OK

Track 22

Filename C:\EACrips\Danny Elfman - Music For A Darkened Theatre (Vol. 2) (CD2) (1996) [FLAC]\22 - Nike Commercial (Barkley Superhero).wav

Peak level 85.2 % Track quality 99.6 % Test CRC 393AAB05 Copy CRC 393AAB05 Accurately ripped (confidence 27) [71497B9F] Copy OK

Track 23

Filename C:\EACrips\Danny Elfman - Music For A Darkened Theatre (Vol. 2) (CD2) (1996) [FLAC]\23 - Theme (The Flash).wav

Peak level 87.7 % Track quality 100.0 % Test CRC D4F66148 Copy CRC D4F66148 Accurately ripped (confidence 27) [E3463D3F] Copy OK

Track 24

Filename C:\EACrips\Danny Elfman - Music For A Darkened Theatre (Vol. 2) (CD2) (1996) [FLAC]\24 - Suite - Part 1 (Pee Wee's Playhouse).wav

Peak level 73.3 % Track quality 100.0 % Test CRC 6953815C Copy CRC 6953815C Accurately ripped (confidence 27) [6AC8149E] Copy OK

Track 25

Filename C:\EACrips\Danny Elfman - Music For A Darkened Theatre (Vol. 2) (CD2) (1996) [FLAC]\25 - Suite - Part 2 (Pee Wee's Playhouse).wav

Peak level 87.6 % Track quality 100.0 % Test CRC 9E30823E Copy CRC 9E30823E Accurately ripped (confidence 27) [ED594ADB] Copy OK

Track 26

Filename C:\EACrips\Danny Elfman - Music For A Darkened Theatre (Vol. 2) (CD2) (1996) [FLAC]\26 - Suite - Part 3 (Pee Wee's Playhouse).wav

Peak level 50.2 % Track quality 99.5 % Test CRC 73EDEDEA Copy CRC 73EDEDEA Accurately ripped (confidence 27) [285C21F9] Copy OK

Track 27

Filename C:\EACrips\Danny Elfman - Music For A Darkened Theatre (Vol. 2) (CD2) (1996) [FLAC]\27 - Suite - Part 4 (Pee Wee's Playhouse).wav

Peak level 60.5 % Track quality 100.0 % Test CRC C51E3A39 Copy CRC C51E3A39 Accurately ripped (confidence 27) [8CA507D5] Copy OK

Track 28

Filename C:\EACrips\Danny Elfman - Music For A Darkened Theatre (Vol. 2) (CD2) (1996) [FLAC]\28 - Theme (Beetlejuice Animated Series).wav

Peak level 91.1 % Track quality 99.8 % Test CRC 6F411F1B Copy CRC 6F411F1B Accurately ripped (confidence 26) [FB8043FB] Copy OK

Track 29

Filename C:\EACrips\Danny Elfman - Music For A Darkened Theatre (Vol. 2) (CD2) (1996) [FLAC]\29 - This Is Halloween (Original Demo For Nightmare Before Christmas).wav

Peak level 89.7 % Track quality 100.0 % Test CRC A5B93B71 Copy CRC A5B93B71 Accurately ripped (confidence 26) [7052CC53] Copy OK

All tracks accurately ripped

No errors occurred

End of status report
 
REM GENRE SoundtrackREM DATE 1996REM DISCID C311681DREM COMMENT "ExactAudioCopy v0.99pb5"PERFORMER "Danny Elfman"TITLE "Music For A Darkened Theatre (Vol. 2) (CD2)"FILE "01 - Trouble (Mission Impossible).wav" WAVE TRACK 01 AUDIO TITLE "Trouble (Mission Impossible)" PERFORMER "Danny Elfman" INDEX 01 00:00:00FILE "02 - Looking For A Job (Mission Impossible).wav" WAVE TRACK 02 AUDIO TITLE "Looking For A Job (Mission Impossible)" PERFORMER "Danny Elfman" INDEX 01 00:00:00FILE "03 - Betrayal (Mission Impossible).wav" WAVE TRACK 03 AUDIO TITLE "Betrayal (Mission Impossible)" PERFORMER "Danny Elfman" INDEX 01 00:00:00FILE "04 - Main Titles (Sommersby).wav" WAVE TRACK 04 AUDIO TITLE "Main Titles (Sommersby)" PERFORMER "Danny Elfman" INDEX 01 00:00:00FILE "05 - Return Montage (Sommersby).wav" WAVE TRACK 05 AUDIO TITLE "Return Montage (Sommersby)" PERFORMER "Danny Elfman" INDEX 01 00:00:00FILE "06 - Finale - End Titles (Sommersby).wav" WAVE TRACK 06 AUDIO TITLE "Finale - End Titles (Sommersby)" PERFORMER "Danny Elfman" INDEX 01 00:00:00FILE "07 - Main Titles (Dead Presidents).wav" WAVE TRACK 07 AUDIO TITLE "Main Titles (Dead Presidents)" PERFORMER "Danny Elfman" INDEX 01 00:00:00FILE "08 - Daughter (Dead Presidents).wav" WAVE TRACK 08 AUDIO TITLE "Daughter (Dead Presidents)" PERFORMER "Danny Elfman" INDEX 01 00:00:00FILE "09 - Montage (Dead Presidents).wav" WAVE TRACK 09 AUDIO TITLE "Montage (Dead Presidents)" PERFORMER "Danny Elfman" INDEX 01 00:00:00FILE "10 - Nam (Dead Presidents).wav" WAVE TRACK 10 AUDIO TITLE "Nam (Dead Presidents)" PERFORMER "Danny Elfman" INDEX 01 00:00:00FILE "11 - Nightmare (Dead Presidents).wav" WAVE TRACK 11 AUDIO TITLE "Nightmare (Dead Presidents)" PERFORMER "Danny Elfman" INDEX 01 00:00:00 TRACK 12 AUDIO TITLE "Overture (Nightmare Before Christmas)" PERFORMER "Danny Elfman" INDEX 00 01:16:28FILE "12 - Overture (Nightmare Before Christmas).wav" WAVE INDEX 01 00:00:00FILE "13 - Jack And Sally Suite (Nightmare Before Christmas).wav" WAVE TRACK 13 AUDIO TITLE "Jack And Sally Suite (Nightmare Before Christmas)" PERFORMER "Danny Elfman" INDEX 01 00:00:00FILE "14 - Christmas Eve Montage (Nightmare Before Christmas).wav" WAVE TRACK 14 AUDIO TITLE "Christmas Eve Montage (Nightmare Before Christmas)" PERFORMER "Danny Elfman" INDEX 01 00:00:00FILE "15 - Main Titles (Freeway).wav" WAVE TRACK 15 AUDIO TITLE "Main Titles (Freeway)" PERFORMER "Danny Elfman" INDEX 01 00:00:00FILE "16 - On The Road (Freeway).wav" WAVE TRACK 16 AUDIO TITLE "On The Road (Freeway)" PERFORMER "Danny Elfman" INDEX 01 00:00:00FILE "17 - Back In The Car (Freeway).wav" WAVE TRACK 17 AUDIO TITLE "Back In The Car (Freeway)" PERFORMER "Danny Elfman" INDEX 01 00:00:00 TRACK 18 AUDIO TITLE "Main Titles (Shrunken Heads)" PERFORMER "Danny Elfman" INDEX 00 01:19:20FILE "18 - Main Titles (Shrunken Heads).wav" WAVE INDEX 01 00:00:00FILE "19 - Family Dog - Part 1 (Amazing Stories).wav" WAVE TRACK 19 AUDIO TITLE "Family Dog - Part 1 (Amazing Stories)" PERFORMER "Danny Elfman" INDEX 01 00:00:00FILE "20 - Family Dog - Part 2 (Amazing Stories).wav" WAVE TRACK 20 AUDIO TITLE "Family Dog - Part 2 (Amazing Stories)" PERFORMER "Danny Elfman" INDEX 01 00:00:00FILE "21 - Mummy, Daddy (Amazing Stories).wav" WAVE TRACK 21 AUDIO TITLE "Mummy, Daddy (Amazing Stories)" PERFORMER "Danny Elfman" INDEX 01 00:00:00FILE "22 - Nike Commercial (Barkley Superhero).wav" WAVE TRACK 22 AUDIO TITLE "Nike Commercial (Barkley Superhero)" PERFORMER "Danny Elfman" INDEX 01 00:00:00FILE "23 - Theme (The Flash).wav" WAVE TRACK 23 AUDIO TITLE "Theme (The Flash)" PERFORMER "Danny Elfman" INDEX 01 00:00:00FILE "24 - Suite - Part 1 (Pee Wee's Playhouse).wav" WAVE TRACK 24 AUDIO TITLE "Suite - Part 1 (Pee Wee's Playhouse)" PERFORMER "Danny Elfman" INDEX 01 00:00:00FILE "25 - Suite - Part 2 (Pee Wee's Playhouse).wav" WAVE TRACK 25 AUDIO TITLE "Suite - Part 2 (Pee Wee's Playhouse)" PERFORMER "Danny Elfman" INDEX 01 00:00:00FILE "26 - Suite - Part 3 (Pee Wee's Playhouse).wav" WAVE TRACK 26 AUDIO TITLE "Suite - Part 3 (Pee Wee's Playhouse)" PERFORMER "Danny Elfman" INDEX 01 00:00:00FILE "27 - Suite - Part 4 (Pee Wee's Playhouse).wav" WAVE TRACK 27 AUDIO TITLE "Suite - Part 4 (Pee Wee's Playhouse)" PERFORMER "Danny Elfman" INDEX 01 00:00:00FILE "28 - Theme (Beetlejuice Animated Series).wav" WAVE TRACK 28 AUDIO TITLE "Theme (Beetlejuice Animated Series)" PERFORMER "Danny Elfman" INDEX 01 00:00:00FILE "29 - This Is Halloween (Original Demo For Nightmare Before Christmas).wav" WAVE TRACK 29 AUDIO TITLE "This Is Halloween (Original Demo For Nightmare Before Christmas)" PERFORMER "Danny Elfman" INDEX 01 00:00:00



Трекер:  [ 14-Ноя-2011 21:28 ]

  

Скачать .torrent

Размер .torrent файла 54 KB


Размер: 1.06 GB
Хэш (hash) релиза: 27c8ec7669bf5d73abba6e6f94bc39d196eaf550

Торренты, похожие на Music For A Darkened Theatre - Film & Television Music скачать торрент

Форум Название Автор Размер S L Добавлен
Саундтреки к фильмам и мультфильмам (mp3) ·· (Score) Music For A Darkened Theatre - Film & Television Music [Volume 1-3] (by Danny Elfman) - 1990-2009, MP3, 320 kbps Mos 940838583897 MB 0 0 1321063246

05:00

12-Ноя-11

Еще никто не оставлял запись к записи скачать торрент Music For A Darkened Theatre - Film & Television Music . Будь первым!

!Обратная связь