Скачать через торрент музыку Атлантис Atlantis бесплатно без регистрации torrent

Если у вас наблюдаются проблемы со скриншотами, переходом по ссылками, скачиванием торрентов - проблемы в блокировщике рекламы AdBlock. #хорошегоДня!


Статистика раздачи
Размер:  330 MB   |    Зарегистрирован:  5 лет 10 месяцев   |    .torrent скачан:  44 раза   |   
Раздают:  1  
   
Загрузка...
 
Автор Сообщение

Galfimbul

avatar Galfimbul


Атлантис | Atlantis

Жанр: Score
Композитор: Eric Serra
Год выпуска диска: 1991
Год выпуска фильма: 1991
Страна-производитель диска: Belgium
Издатель (лейбл): Virgin Records
Номер по каталогу: 0946351595 2 3
Аудио кодек: FLAC (*.flac)
Тип рипа: tracks+.cue
Битрейт аудио: lossless
Продолжительность: 00:58:27
Источник: Собственный рип
Наличие сканов в содержимом раздачи: да

Треклист:
1. The Creation (04:52)
2. The Secret Life Of Angels (05:34)
3. Visions Of The Underway (01:38)
4. The Snake (04:56)
5. Iguana Dance (04:58)
6. Down To The Unknown World (02:45)
7. The Magic Forest (02:44)
8. In The Kingdom Of Spirits (03:16)
9. The Legend Of Manatees (05:03)
10. Time To Get Your Lovin' (06:00)
11. Shark Attack (09:41)
12. The Realms Of Ice (07:00)
 
Exact Audio Copy V1.0 beta 3 from 29. August 2011

EAC extraction logfile from 12. November 2011, 11:48

Eric Serra / Atlantis

Used drive : Optiarc DVD RW AD-7283S Adapter: 1 ID: 1

Read mode : SecureUtilize accurate stream : YesDefeat audio cache : YesMake use of C2 pointers : No

Read offset correction : 48Overread into Lead-In and Lead-Out : YesFill up missing offset samples with silence : YesDelete leading and trailing silent blocks : NoNull samples used in CRC calculations : YesUsed interface : Installed external ASPI interfaceGap handling : Appended to previous track

Used output format : User Defined EncoderSelected bitrate : 1024 kBit/sQuality : HighAdd ID3 tag : NoCommand line compressor : C:\Program Files\Exact Audio Copy\Flac\flac.exeAdditional command line options : -V -8 -T "Genre=%genre%" -T "Artist=%artist%" -T "Title=%title%" -T "Album=%albumtitle%" -T "Date=%year%" -T "Tracknumber=%tracknr%" -T "Comment=%comment%" %source%

TOC of the extracted CD

Track | Start | Length | Start sector | End sector --------------------------------------------------------- 1 | 0:00.33 | 4:55.57 | 33 | 22214 2 | 4:56.15 | 5:37.13 | 22215 | 47502 3 | 10:33.28 | 1:37.70 | 47503 | 54847 4 | 12:11.23 | 4:56.40 | 54848 | 77087 5 | 17:07.63 | 5:04.57 | 77088 | 99944 6 | 22:12.45 | 3:53.35 | 99945 | 117454 7 | 26:06.05 | 2:16.70 | 117455 | 127724 8 | 28:23.00 | 3:47.15 | 127725 | 144764 9 | 32:10.15 | 5:07.65 | 144765 | 167854 10 | 37:18.05 | 6:07.63 | 167855 | 195442 11 | 43:25.68 | 9:47.65 | 195443 | 239532 12 | 53:13.58 | 8:16.60 | 239533 | 276792

Track 1

Filename F:\torrent\Atlantis_Eric Serra\score\01 The Creation.wav

Pre-gap length 0:00:02.33

Peak level 94.4 % Extraction speed 2.4 X Track quality 100.0 % Test CRC B2E29421 Copy CRC B2E29421 Track not present in AccurateRip database Copy OK

Track 2

Filename F:\torrent\Atlantis_Eric Serra\score\02 The Secret Life Of Angels.wav

Pre-gap length 0:00:02.52

Peak level 94.4 % Extraction speed 2.8 X Track quality 100.0 % Test CRC 09E76473 Copy CRC 09E76473 Track not present in AccurateRip database Copy OK

Track 3

Filename F:\torrent\Atlantis_Eric Serra\score\03 Visions Of The Underway.wav

Pre-gap length 0:00:01.55

Peak level 27.3 % Extraction speed 1.9 X Track quality 99.8 % Test CRC A08733B8 Copy CRC A08733B8 Track not present in AccurateRip database Copy OK

Track 4

Filename F:\torrent\Atlantis_Eric Serra\score\04 The Snake.wav

Peak level 75.7 % Extraction speed 3.2 X Track quality 100.0 % Test CRC 190F6BCB Copy CRC 190F6BCB Track not present in AccurateRip database Copy OK

Track 5

Filename F:\torrent\Atlantis_Eric Serra\score\05 Iguana Dance.wav

Peak level 99.6 % Extraction speed 3.2 X Track quality 99.9 % Test CRC A1A0C8F8 Copy CRC A1A0C8F8 Track not present in AccurateRip database Copy OK

Track 6

Filename F:\torrent\Atlantis_Eric Serra\score\06 Down To The Unknown World.wav

Pre-gap length 0:00:03.00

Peak level 53.5 % Extraction speed 3.6 X Track quality 100.0 % Test CRC 1FA61474 Copy CRC 1FA61474 Track not present in AccurateRip database Copy OK

Track 7

Filename F:\torrent\Atlantis_Eric Serra\score\07 The Magic Forest.wav

Peak level 35.0 % Extraction speed 3.4 X Track quality 100.0 % Test CRC 1ACF8C1B Copy CRC 1ACF8C1B Track not present in AccurateRip database Copy OK

Track 8

Filename F:\torrent\Atlantis_Eric Serra\score\08 In The Kingdom Of Spirits.wav

Peak level 54.6 % Extraction speed 3.8 X Track quality 100.0 % Test CRC BB467D53 Copy CRC BB467D53 Track not present in AccurateRip database Copy OK

Track 9

Filename F:\torrent\Atlantis_Eric Serra\score\09 The Legend Of Manatees.wav

Pre-gap length 0:00:03.15

Peak level 64.0 % Extraction speed 4.1 X Track quality 100.0 % Test CRC A1F0EF85 Copy CRC A1F0EF85 Track not present in AccurateRip database Copy OK

Track 10

Filename F:\torrent\Atlantis_Eric Serra\score\10 Time To Get Your Lovin'.wav

Pre-gap length 0:00:02.50

Peak level 94.4 % Extraction speed 4.1 X Track quality 99.9 % Test CRC 235AB34A Copy CRC 235AB34A Track not present in AccurateRip database Copy OK

Track 11

Filename F:\torrent\Atlantis_Eric Serra\score\11 Shark Attack.wav

Pre-gap length 0:00:02.68

Peak level 96.4 % Extraction speed 4.9 X Track quality 100.0 % Test CRC 491A4752 Copy CRC 491A4752 Track not present in AccurateRip database Copy OK

Track 12

Filename F:\torrent\Atlantis_Eric Serra\score\12 The Realms Of Ice.wav

Pre-gap length 0:00:03.10

Peak level 99.9 % Extraction speed 5.5 X Track quality 100.0 % Test CRC F3D0D9EB Copy CRC F3D0D9EB Track not present in AccurateRip database Copy OK

None of the tracks are present in the AccurateRip database

No errors occurred

End of status report

==== Log checksum 90939CA857EDE6D312E58233146781906E7D34780F6D0FF0CDB25644009F8989 ====
 
REM GENRE SoundtrackREM DATE 1991REM DISCID A00E6A0CREM COMMENT "ExactAudioCopy v1.0b3"PERFORMER "Eric Serra"TITLE "Atlantis"FILE "01 The Creation.wav" WAVE TRACK 01 AUDIO TITLE "The Creation" PERFORMER "Eric Serra" PREGAP 00:00:33 INDEX 01 00:00:00 TRACK 02 AUDIO TITLE "The Secret Life Of Angels" PERFORMER "Eric Serra" INDEX 00 04:53:05FILE "02 The Secret Life Of Angels.wav" WAVE INDEX 01 00:00:00 TRACK 03 AUDIO TITLE "Visions Of The Underway" PERFORMER "Eric Serra" INDEX 00 05:35:33FILE "03 Visions Of The Underway.wav" WAVE INDEX 01 00:00:00FILE "04 The Snake.wav" WAVE TRACK 04 AUDIO TITLE "The Snake" PERFORMER "Eric Serra" INDEX 01 00:00:00FILE "05 Iguana Dance.wav" WAVE TRACK 05 AUDIO TITLE "Iguana Dance" PERFORMER "Eric Serra" INDEX 01 00:00:00 TRACK 06 AUDIO TITLE "Down To The Unknown World" PERFORMER "Eric Serra" INDEX 00 05:01:57FILE "06 Down To The Unknown World.wav" WAVE INDEX 01 00:00:00FILE "07 The Magic Forest.wav" WAVE TRACK 07 AUDIO TITLE "The Magic Forest" PERFORMER "Eric Serra" INDEX 01 00:00:00FILE "08 In The Kingdom Of Spirits.wav" WAVE TRACK 08 AUDIO TITLE "In The Kingdom Of Spirits" PERFORMER "Eric Serra" INDEX 01 00:00:00 TRACK 09 AUDIO TITLE "The Legend Of Manatees" PERFORMER "Eric Serra" INDEX 00 03:44:00FILE "09 The Legend Of Manatees.wav" WAVE INDEX 01 00:00:00 TRACK 10 AUDIO TITLE "Time To Get Your Lovin'" PERFORMER "Eric Serra" INDEX 00 05:05:15FILE "10 Time To Get Your Lovin'.wav" WAVE INDEX 01 00:00:00 TRACK 11 AUDIO TITLE "Shark Attack" PERFORMER "Eric Serra" INDEX 00 06:04:70FILE "11 Shark Attack.wav" WAVE INDEX 01 00:00:00 TRACK 12 AUDIO TITLE "The Realms Of Ice" PERFORMER "Eric Serra" INDEX 00 09:44:55FILE "12 The Realms Of Ice.wav" WAVE INDEX 01 00:00:00


Трекер:  [ 14-Ноя-2011 21:28 ]

  

Скачать .torrent

Размер .torrent файла 14 KB


Размер: 330 MB
Хэш (hash) релиза: 76f6d3e310cdff2d68a8b44e17ef85733bb52273

Еще никто не оставлял запись к записи скачать торрент Атлантис Atlantis . Будь первым!

!Обратная связь