Скачать через торрент музыку Адреналин 2: Высокое напряжение Crank: High Voltage бесплатно без регистрации torrent

Если у вас наблюдаются проблемы со скриншотами, переходом по ссылками, скачиванием торрентов - проблемы в блокировщике рекламы AdBlock. #хорошегоДня!


Статистика раздачи
Размер:  340 MB   |    Зарегистрирован:  5 лет 10 месяцев   |    .torrent скачан:  807 раз   |   
Раздают:  1  
   
Загрузка...
 
Автор Сообщение

Mos

avatar Mos


Адреналин 2: Высокое напряжение / Crank: High Voltage
Music by Mike Patton

Жанр: Score | Год выпуска диска: 2009
Издатель (лейбл): Lakeshore Records | Номер по каталогу: LKS 34073
Аудиокодек: FLAC (*.flac) | Тип рипа: tracks+.cue | Битрейт аудио: lossless
Продолжительность: 00:54:57
Источник: WhatCD
01. Kickin' [01:32]
02. Chelios [02:34]
03. Sweet Cream (Redux) [02:35]
04. Organ Donor [02:10]
05. Chickenscratch [01:36]
06. Tourettes Romance [01:29]
07. Doc Miles [01:03]
08. El Huron [02:02]
09. Tourettes Breakdance [02:23]
10. Juice Me [01:12]
11. Hallucination [00:54]
12. Porn Strike [01:01]
13. Surgery [02:48]
14. Social Club [01:30]
15. Chocolate Theme [01:11]
16. Ball Torture [00:51]
17. Chevzilla [02:13]
18. The Hammer Drops [02:13]
19. Triad Limo [03:09]
20. Shock & Shootout [02:44]
21. Pixelvision [01:43]
22. Spring Loaded [02:16]
23. Verona [01:18]
24. Car Park Throwdown [01:39]
25. Noticias [00:15]
26. Catalina Island [01:17]
27. Supercharged [00:51]
28. Massage Parlor [01:18]
29. Full Body Tourettes [00:26]
30. Epilogue - In My Dreams [04:15]
31. Friction [00:56]
32. Epiphany [01:19]
 
Exact Audio Copy V1.0 beta 3 from 29. August 2011

EAC extraction logfile from 10. November 2011, 8:05

Mike Patton / Crank: High Voltage

Used drive : LITE-ON DVDRW SHW-160P6S Adapter: 4 ID: 0

Read mode : SecureUtilize accurate stream : YesDefeat audio cache : YesMake use of C2 pointers : No

Read offset correction : 6Overread into Lead-In and Lead-Out : NoFill up missing offset samples with silence : YesDelete leading and trailing silent blocks : NoNull samples used in CRC calculations : YesUsed interface : Native Win32 interface for Win NT & 2000Gap handling : Appended to previous track

Used output format : User Defined EncoderSelected bitrate : 896 kBit/sQuality : HighAdd ID3 tag : NoCommand line compressor : C:\Program Files (x86)\Exact Audio Copy\FLAC\FLAC.EXEAdditional command line options : -8 -V -T "ARTIST=%artist%" -T "TITLE=%title%" -T "ALBUM=%albumtitle%" -T "DATE=%year%" -T "TRACKNUMBER=%tracknr%" -T "GENRE=%genre%" -T "PERFORMER=%albuminterpret%" -T "COMPOSER=%composer%" %haslyrics%--tag-from-file=LYRICS="%lyricsfile%"%haslyrics% -T "ALBUMARTIST=%albumartist%" -T "DISCNUMBER=%cdnumber%" -T "TOTALDISCS=%totalcds%" -T "TOTALTRACKS=%numtracks%" -T "COMMENT=%comment%" %source% -o %dest%

TOC of the extracted CD

Track | Start | Length | Start sector | End sector --------------------------------------------------------- 1 | 0:00.00 | 1:32.47 | 0 | 6946 2 | 1:32.47 | 2:34.02 | 6947 | 18498 3 | 4:06.49 | 2:35.32 | 18499 | 30155 4 | 6:42.06 | 2:10.23 | 30156 | 39928 5 | 8:52.29 | 1:36.38 | 39929 | 47166 6 | 10:28.67 | 1:29.27 | 47167 | 53868 7 | 11:58.19 | 1:03.28 | 53869 | 58621 8 | 13:01.47 | 2:02.54 | 58622 | 67825 9 | 15:04.26 | 2:23.07 | 67826 | 78557 10 | 17:27.33 | 1:12.44 | 78558 | 84001 11 | 18:40.02 | 0:54.28 | 84002 | 88079 12 | 19:34.30 | 1:01.27 | 88080 | 92681 13 | 20:35.57 | 2:48.21 | 92682 | 105302 14 | 23:24.03 | 1:30.11 | 105303 | 112063 15 | 24:54.14 | 1:11.74 | 112064 | 117462 16 | 26:06.13 | 0:51.18 | 117463 | 121305 17 | 26:57.31 | 2:13.01 | 121306 | 131281 18 | 29:10.32 | 2:13.26 | 131282 | 141282 19 | 31:23.58 | 3:09.22 | 141283 | 155479 20 | 34:33.05 | 2:44.15 | 155480 | 167794 21 | 37:17.20 | 1:43.59 | 167795 | 175578 22 | 39:01.04 | 2:16.15 | 175579 | 185793 23 | 41:17.19 | 1:18.57 | 185794 | 191700 24 | 42:36.01 | 1:39.32 | 191701 | 199157 25 | 44:15.33 | 0:15.45 | 199158 | 200327 26 | 44:31.03 | 1:17.70 | 200328 | 206172 27 | 45:48.73 | 0:51.40 | 206173 | 210037 28 | 46:40.38 | 1:18.54 | 210038 | 215941 29 | 47:59.17 | 0:26.38 | 215942 | 217929 30 | 48:25.55 | 4:15.33 | 217930 | 237087 31 | 52:41.13 | 0:56.44 | 237088 | 241331 32 | 53:37.57 | 1:19.14 | 241332 | 247270

Track 1

Filename D:\EAC\Mike Patton\Crank- High Voltage\01 Kickin'.wav

Pre-gap length 0:00:02.00

Peak level 100.0 % Extraction speed 0.9 X Track quality 99.8 % Test CRC FC177D60 Copy CRC FC177D60 Accurately ripped (confidence 2) [7B065AEA] (AR v2) Copy OK

Track 2

Filename D:\EAC\Mike Patton\Crank- High Voltage\02 Chelios.wav

Pre-gap length 0:00:01.06

Peak level 90.0 % Extraction speed 1.2 X Track quality 99.9 % Test CRC 40109188 Copy CRC 40109188 Accurately ripped (confidence 2) [30B7AC64] (AR v2) Copy OK

Track 3

Filename D:\EAC\Mike Patton\Crank- High Voltage\03 Sweet Cream (Redux).wav

Pre-gap length 0:00:00.77

Peak level 93.9 % Extraction speed 2.0 X Track quality 100.0 % Test CRC 20BB4948 Copy CRC 20BB4948 Accurately ripped (confidence 2) [BC4D8DC2] (AR v2) Copy OK

Track 4

Filename D:\EAC\Mike Patton\Crank- High Voltage\04 Organ Donor.wav

Peak level 100.0 % Extraction speed 1.9 X Track quality 100.0 % Test CRC 86A0EFEB Copy CRC 86A0EFEB Accurately ripped (confidence 2) [8F98EE41] (AR v2) Copy OK

Track 5

Filename D:\EAC\Mike Patton\Crank- High Voltage\05 Chickenscratch.wav

Peak level 98.6 % Extraction speed 1.8 X Track quality 100.0 % Test CRC 41115253 Copy CRC 41115253 Accurately ripped (confidence 2) [0DA429E9] (AR v2) Copy OK

Track 6

Filename D:\EAC\Mike Patton\Crank- High Voltage\06 Tourettes Romance.wav

Pre-gap length 0:00:03.44

Peak level 100.0 % Extraction speed 1.8 X Track quality 100.0 % Test CRC 4093E9AD Copy CRC 4093E9AD Accurately ripped (confidence 2) [E89397F5] (AR v2) Copy OK

Track 7

Filename D:\EAC\Mike Patton\Crank- High Voltage\07 Doc Miles.wav

Pre-gap length 0:00:00.17

Peak level 100.0 % Extraction speed 0.7 X Track quality 99.8 % Test CRC BD4317B6 Copy CRC BD4317B6 Accurately ripped (confidence 2) [1A09A97C] (AR v2) Copy OK

Track 8

Filename D:\EAC\Mike Patton\Crank- High Voltage\08 El Huron.wav

Pre-gap length 0:00:00.48

Peak level 78.8 % Extraction speed 1.9 X Track quality 100.0 % Test CRC 2B5AEA3F Copy CRC 2B5AEA3F Accurately ripped (confidence 2) [0181B3E1] (AR v2) Copy OK

Track 9

Filename D:\EAC\Mike Patton\Crank- High Voltage\09 Tourettes Breakdance.wav

Peak level 100.0 % Extraction speed 1.2 X Track quality 99.9 % Test CRC 4CBD8ADD Copy CRC 4CBD8ADD Accurately ripped (confidence 2) [13492734] (AR v2) Copy OK

Track 10

Filename D:\EAC\Mike Patton\Crank- High Voltage\10 Juice Me.wav

Peak level 100.0 % Extraction speed 1.6 X Track quality 100.0 % Test CRC 69464540 Copy CRC 69464540 Accurately ripped (confidence 2) [32B1C0A2] (AR v2) Copy OK

Track 11

Filename D:\EAC\Mike Patton\Crank- High Voltage\11 Hallucination.wav

Pre-gap length 0:00:03.34

Peak level 74.1 % Extraction speed 1.5 X Track quality 100.0 % Test CRC B2F5B6BB Copy CRC B2F5B6BB Accurately ripped (confidence 2) [5CC0F25E] (AR v2) Copy OK

Track 12

Filename D:\EAC\Mike Patton\Crank- High Voltage\12 Porn Strike.wav

Pre-gap length 0:00:00.29

Peak level 100.0 % Extraction speed 1.5 X Track quality 100.0 % Test CRC D5FE2842 Copy CRC D5FE2842 Accurately ripped (confidence 2) [6F9519FF] (AR v2) Copy OK

Track 13

Filename D:\EAC\Mike Patton\Crank- High Voltage\13 Surgery.wav

Pre-gap length 0:00:02.66

Peak level 100.0 % Extraction speed 1.3 X Track quality 99.9 % Test CRC 5B75F799 Copy CRC 5B75F799 Accurately ripped (confidence 2) [A0C2D3AA] (AR v2) Copy OK

Track 14

Filename D:\EAC\Mike Patton\Crank- High Voltage\14 Social Club.wav

Peak level 100.0 % Extraction speed 1.8 X Track quality 100.0 % Test CRC AE17219D Copy CRC AE17219D Accurately ripped (confidence 2) [D34F026A] (AR v2) Copy OK

Track 15

Filename D:\EAC\Mike Patton\Crank- High Voltage\15 Chocolate Theme.wav

Pre-gap length 0:00:02.60

Peak level 100.0 % Extraction speed 1.6 X Track quality 100.0 % Test CRC 67A45922 Copy CRC 67A45922 Accurately ripped (confidence 2) [54C69EDA] (AR v2) Copy OK

Track 16

Filename D:\EAC\Mike Patton\Crank- High Voltage\16 Ball Torture.wav

Pre-gap length 0:00:00.64

Peak level 89.4 % Extraction speed 1.4 X Track quality 100.0 % Test CRC 9389B5BA Copy CRC 9389B5BA Accurately ripped (confidence 2) [672FCC06] (AR v2) Copy OK

Track 17

Filename D:\EAC\Mike Patton\Crank- High Voltage\17 Chevzilla.wav

Pre-gap length 0:00:01.00

Peak level 100.0 % Extraction speed 1.9 X Track quality 100.0 % Test CRC 3A595F0F Copy CRC 3A595F0F Accurately ripped (confidence 2) [F490E596] (AR v2) Copy OK

Track 18

Filename D:\EAC\Mike Patton\Crank- High Voltage\18 The Hammer Drops.wav

Pre-gap length 0:00:00.25

Peak level 100.0 % Extraction speed 1.9 X Track quality 100.0 % Test CRC E0E062BE Copy CRC E0E062BE Accurately ripped (confidence 2) [43819274] (AR v2) Copy OK

Track 19

Filename D:\EAC\Mike Patton\Crank- High Voltage\19 Triad Limo.wav

Pre-gap length 0:00:01.48

Peak level 89.4 % Extraction speed 2.1 X Track quality 100.0 % Test CRC B4737DEB Copy CRC B4737DEB Accurately ripped (confidence 2) [D940D040] (AR v2) Copy OK

Track 20

Filename D:\EAC\Mike Patton\Crank- High Voltage\20 Shock & Shootout.wav

Pre-gap length 0:00:00.92

Peak level 100.0 % Extraction speed 2.0 X Track quality 100.0 % Test CRC 8602E8A2 Copy CRC 8602E8A2 Accurately ripped (confidence 2) [97E99395] (AR v2) Copy OK

Track 21

Filename D:\EAC\Mike Patton\Crank- High Voltage\21 Pixelvision.wav

Pre-gap length 0:00:00.53

Peak level 43.5 % Extraction speed 1.8 X Track quality 100.0 % Test CRC 2C046E25 Copy CRC 2C046E25 Accurately ripped (confidence 2) [1EF21D3B] (AR v2) Copy OK

Track 22

Filename D:\EAC\Mike Patton\Crank- High Voltage\22 Spring Loaded.wav

Pre-gap length 0:00:01.44

Peak level 100.0 % Extraction speed 2.0 X Track quality 100.0 % Test CRC 932F698A Copy CRC 932F698A Accurately ripped (confidence 2) [8A3F0404] (AR v2) Copy OK

Track 23

Filename D:\EAC\Mike Patton\Crank- High Voltage\23 Verona.wav

Peak level 44.2 % Extraction speed 1.7 X Track quality 100.0 % Test CRC CD039ECC Copy CRC CD039ECC Accurately ripped (confidence 2) [8FA58E42] (AR v2) Copy OK

Track 24

Filename D:\EAC\Mike Patton\Crank- High Voltage\24 Car Park Throwdown.wav

Pre-gap length 0:00:00.50

Peak level 100.0 % Extraction speed 1.8 X Track quality 100.0 % Test CRC 9A506961 Copy CRC 9A506961 Accurately ripped (confidence 2) [26D225B4] (AR v2) Copy OK

Track 25

Filename D:\EAC\Mike Patton\Crank- High Voltage\25 Noticias.wav

Pre-gap length 0:00:03.68

Peak level 70.8 % Extraction speed 0.2 X Track quality 99.3 % Test CRC BBD2877C Copy CRC BBD2877C Accurately ripped (confidence 2) [D9A33BB5] (AR v2) Copy OK

Track 26

Filename D:\EAC\Mike Patton\Crank- High Voltage\26 Catalina Island.wav

Pre-gap length 0:00:00.06

Peak level 100.0 % Extraction speed 1.7 X Track quality 100.0 % Test CRC 4D06DC87 Copy CRC 4D06DC87 Accurately ripped (confidence 2) [C1EF788E] (AR v2) Copy OK

Track 27

Filename D:\EAC\Mike Patton\Crank- High Voltage\27 Supercharged.wav

Pre-gap length 0:00:00.45

Peak level 100.0 % Extraction speed 1.5 X Track quality 100.0 % Test CRC 392701F9 Copy CRC 392701F9 Accurately ripped (confidence 2) [9D69481F] (AR v2) Copy OK

Track 28

Filename D:\EAC\Mike Patton\Crank- High Voltage\28 Massage Parlor.wav

Pre-gap length 0:00:01.94

Peak level 62.7 % Extraction speed 1.6 X Track quality 100.0 % Test CRC DB3430D5 Copy CRC DB3430D5 Accurately ripped (confidence 2) [A2BB3C1C] (AR v2) Copy OK

Track 29

Filename D:\EAC\Mike Patton\Crank- High Voltage\29 Full Body Tourettes.wav

Peak level 92.3 % Extraction speed 1.0 X Track quality 100.0 % Test CRC ACC18EB2 Copy CRC ACC18EB2 Accurately ripped (confidence 2) [55749D99] (AR v2) Copy OK

Track 30

Filename D:\EAC\Mike Patton\Crank- High Voltage\30 Epilogue - In My Dreams.wav

Peak level 100.0 % Extraction speed 2.2 X Track quality 100.0 % Test CRC BBEA6719 Copy CRC BBEA6719 Accurately ripped (confidence 2) [636BD080] (AR v2) Copy OK

Track 31

Filename D:\EAC\Mike Patton\Crank- High Voltage\31 Friction.wav

Peak level 37.2 % Extraction speed 1.5 X Track quality 100.0 % Test CRC F8FB3EA6 Copy CRC F8FB3EA6 Accurately ripped (confidence 2) [B3E3073F] (AR v2) Copy OK

Track 32

Filename D:\EAC\Mike Patton\Crank- High Voltage\32 Epiphany.wav

Peak level 100.0 % Extraction speed 1.7 X Track quality 100.0 % Test CRC EC8DCF8D Copy CRC EC8DCF8D Accurately ripped (confidence 2) [61BA0D48] (AR v2) Copy OK

All tracks accurately ripped

No errors occurred

End of status report

---- CUETools DB Plugin V2.1.3

[CTDB TOCID: RBIGeTDcY6xMgrNWcruHOgd4ko4-] disk not present in database, Submit result: RBIGeTDcY6xMgrNWcruHOgd4ko4- has been uploaded

==== Log checksum D7B129BD07D7D7C5C31932E9B435FCA24179B666E6C3D579276BD03E5A9B7E76 ====
 
REM GENRE ExperimentalREM DATE 2009REM DISCID D30CE020REM COMMENT "ExactAudioCopy v1.0b3"FILE "Mike Patton\Crank- High Voltage\01 Kickin'.wav" WAVE TRACK 01 AUDIO INDEX 01 00:00:00 TRACK 02 AUDIO INDEX 00 01:31:42FILE "Mike Patton\Crank- High Voltage\02 Chelios.wav" WAVE INDEX 01 00:00:00 TRACK 03 AUDIO INDEX 00 02:33:19FILE "Mike Patton\Crank- High Voltage\03 Sweet Cream (Redux).wav" WAVE INDEX 01 00:00:00FILE "Mike Patton\Crank- High Voltage\04 Organ Donor.wav" WAVE TRACK 04 AUDIO INDEX 01 00:00:00FILE "Mike Patton\Crank- High Voltage\05 Chickenscratch.wav" WAVE TRACK 05 AUDIO INDEX 01 00:00:00 TRACK 06 AUDIO INDEX 00 01:33:05FILE "Mike Patton\Crank- High Voltage\06 Tourettes Romance.wav" WAVE INDEX 01 00:00:00 TRACK 07 AUDIO INDEX 00 01:29:14FILE "Mike Patton\Crank- High Voltage\07 Doc Miles.wav" WAVE INDEX 01 00:00:00 TRACK 08 AUDIO INDEX 00 01:02:67FILE "Mike Patton\Crank- High Voltage\08 El Huron.wav" WAVE INDEX 01 00:00:00FILE "Mike Patton\Crank- High Voltage\09 Tourettes Breakdance.wav" WAVE TRACK 09 AUDIO INDEX 01 00:00:00FILE "Mike Patton\Crank- High Voltage\10 Juice Me.wav" WAVE TRACK 10 AUDIO INDEX 01 00:00:00 TRACK 11 AUDIO INDEX 00 01:09:18FILE "Mike Patton\Crank- High Voltage\11 Hallucination.wav" WAVE INDEX 01 00:00:00 TRACK 12 AUDIO INDEX 00 00:54:06FILE "Mike Patton\Crank- High Voltage\12 Porn Strike.wav" WAVE INDEX 01 00:00:00 TRACK 13 AUDIO INDEX 00 00:58:52FILE "Mike Patton\Crank- High Voltage\13 Surgery.wav" WAVE INDEX 01 00:00:00FILE "Mike Patton\Crank- High Voltage\14 Social Club.wav" WAVE TRACK 14 AUDIO INDEX 01 00:00:00 TRACK 15 AUDIO INDEX 00 01:27:41FILE "Mike Patton\Crank- High Voltage\15 Chocolate Theme.wav" WAVE INDEX 01 00:00:00 TRACK 16 AUDIO INDEX 00 01:11:26FILE "Mike Patton\Crank- High Voltage\16 Ball Torture.wav" WAVE INDEX 01 00:00:00 TRACK 17 AUDIO INDEX 00 00:50:18FILE "Mike Patton\Crank- High Voltage\17 Chevzilla.wav" WAVE INDEX 01 00:00:00 TRACK 18 AUDIO INDEX 00 02:12:57FILE "Mike Patton\Crank- High Voltage\18 The Hammer Drops.wav" WAVE INDEX 01 00:00:00 TRACK 19 AUDIO INDEX 00 02:11:65FILE "Mike Patton\Crank- High Voltage\19 Triad Limo.wav" WAVE INDEX 01 00:00:00 TRACK 20 AUDIO INDEX 00 03:08:28FILE "Mike Patton\Crank- High Voltage\20 Shock & Shootout.wav" WAVE INDEX 01 00:00:00 TRACK 21 AUDIO INDEX 00 02:43:50FILE "Mike Patton\Crank- High Voltage\21 Pixelvision.wav" WAVE INDEX 01 00:00:00 TRACK 22 AUDIO INDEX 00 01:42:26FILE "Mike Patton\Crank- High Voltage\22 Spring Loaded.wav" WAVE INDEX 01 00:00:00FILE "Mike Patton\Crank- High Voltage\23 Verona.wav" WAVE TRACK 23 AUDIO INDEX 01 00:00:00 TRACK 24 AUDIO INDEX 00 01:18:19FILE "Mike Patton\Crank- High Voltage\24 Car Park Throwdown.wav" WAVE INDEX 01 00:00:00 TRACK 25 AUDIO INDEX 00 01:35:56FILE "Mike Patton\Crank- High Voltage\25 Noticias.wav" WAVE INDEX 01 00:00:00 TRACK 26 AUDIO INDEX 00 00:15:40FILE "Mike Patton\Crank- High Voltage\26 Catalina Island.wav" WAVE INDEX 01 00:00:00 TRACK 27 AUDIO INDEX 00 01:17:36FILE "Mike Patton\Crank- High Voltage\27 Supercharged.wav" WAVE INDEX 01 00:00:00 TRACK 28 AUDIO INDEX 00 00:49:44FILE "Mike Patton\Crank- High Voltage\28 Massage Parlor.wav" WAVE INDEX 01 00:00:00FILE "Mike Patton\Crank- High Voltage\29 Full Body Tourettes.wav" WAVE TRACK 29 AUDIO INDEX 01 00:00:00FILE "Mike Patton\Crank- High Voltage\30 Epilogue - In My Dreams.wav" WAVE TRACK 30 AUDIO INDEX 01 00:00:00FILE "Mike Patton\Crank- High Voltage\31 Friction.wav" WAVE TRACK 31 AUDIO INDEX 01 00:00:00FILE "Mike Patton\Crank- High Voltage\32 Epiphany.wav" WAVE TRACK 32 AUDIO INDEX 01 00:00:00
 
REM GENRE SoundtrackREM DATE 2009REM DISCID D30CE020REM COMMENT "ExactAudioCopy v1.0b3"PERFORMER "Mike Patton"TITLE "Crank: High Voltage"FILE "01 Kickin'.wav" WAVE TRACK 01 AUDIO TITLE "Kickin'" PERFORMER "Mike Patton" INDEX 01 00:00:00 TRACK 02 AUDIO TITLE "Chelios" PERFORMER "Mike Patton" INDEX 00 01:31:42FILE "02 Chelios.wav" WAVE INDEX 01 00:00:00 TRACK 03 AUDIO TITLE "Sweet Cream (Redux)" PERFORMER "Mike Patton" INDEX 00 02:33:19FILE "03 Sweet Cream (Redux).wav" WAVE INDEX 01 00:00:00FILE "04 Organ Donor.wav" WAVE TRACK 04 AUDIO TITLE "Organ Donor" PERFORMER "Mike Patton" INDEX 01 00:00:00FILE "05 Chickenscratch.wav" WAVE TRACK 05 AUDIO TITLE "Chickenscratch" PERFORMER "Mike Patton" INDEX 01 00:00:00 TRACK 06 AUDIO TITLE "Tourettes Romance" PERFORMER "Mike Patton" INDEX 00 01:33:05FILE "06 Tourettes Romance.wav" WAVE INDEX 01 00:00:00 TRACK 07 AUDIO TITLE "Doc Miles" PERFORMER "Mike Patton" INDEX 00 01:29:14FILE "07 Doc Miles.wav" WAVE INDEX 01 00:00:00 TRACK 08 AUDIO TITLE "El Huron" PERFORMER "Mike Patton" INDEX 00 01:02:67FILE "08 El Huron.wav" WAVE INDEX 01 00:00:00FILE "09 Tourettes Breakdance.wav" WAVE TRACK 09 AUDIO TITLE "Tourettes Breakdance" PERFORMER "Mike Patton" INDEX 01 00:00:00FILE "10 Juice Me.wav" WAVE TRACK 10 AUDIO TITLE "Juice Me" PERFORMER "Mike Patton" INDEX 01 00:00:00 TRACK 11 AUDIO TITLE "Hallucination" PERFORMER "Mike Patton" INDEX 00 01:09:18FILE "11 Hallucination.wav" WAVE INDEX 01 00:00:00 TRACK 12 AUDIO TITLE "Porn Strike" PERFORMER "Mike Patton" INDEX 00 00:54:06FILE "12 Porn Strike.wav" WAVE INDEX 01 00:00:00 TRACK 13 AUDIO TITLE "Surgery" PERFORMER "Mike Patton" INDEX 00 00:58:52FILE "13 Surgery.wav" WAVE INDEX 01 00:00:00FILE "14 Social Club.wav" WAVE TRACK 14 AUDIO TITLE "Social Club" PERFORMER "Mike Patton" INDEX 01 00:00:00 TRACK 15 AUDIO TITLE "Chocolate Theme" PERFORMER "Mike Patton" INDEX 00 01:27:41FILE "15 Chocolate Theme.wav" WAVE INDEX 01 00:00:00 TRACK 16 AUDIO TITLE "Ball Torture" PERFORMER "Mike Patton" INDEX 00 01:11:26FILE "16 Ball Torture.wav" WAVE INDEX 01 00:00:00 TRACK 17 AUDIO TITLE "Chevzilla" PERFORMER "Mike Patton" INDEX 00 00:50:18FILE "17 Chevzilla.wav" WAVE INDEX 01 00:00:00 TRACK 18 AUDIO TITLE "The Hammer Drops" PERFORMER "Mike Patton" INDEX 00 02:12:57FILE "18 The Hammer Drops.wav" WAVE INDEX 01 00:00:00 TRACK 19 AUDIO TITLE "Triad Limo" PERFORMER "Mike Patton" INDEX 00 02:11:65FILE "19 Triad Limo.wav" WAVE INDEX 01 00:00:00 TRACK 20 AUDIO TITLE "Shock & Shootout" PERFORMER "Mike Patton" INDEX 00 03:08:28FILE "20 Shock & Shootout.wav" WAVE INDEX 01 00:00:00 TRACK 21 AUDIO TITLE "Pixelvision" PERFORMER "Mike Patton" INDEX 00 02:43:50FILE "21 Pixelvision.wav" WAVE INDEX 01 00:00:00 TRACK 22 AUDIO TITLE "Spring Loaded" PERFORMER "Mike Patton" INDEX 00 01:42:26FILE "22 Spring Loaded.wav" WAVE INDEX 01 00:00:00FILE "23 Verona.wav" WAVE TRACK 23 AUDIO TITLE "Verona" PERFORMER "Mike Patton" INDEX 01 00:00:00 TRACK 24 AUDIO TITLE "Car Park Throwdown" PERFORMER "Mike Patton" INDEX 00 01:18:19FILE "24 Car Park Throwdown.wav" WAVE INDEX 01 00:00:00 TRACK 25 AUDIO TITLE "Noticias" PERFORMER "Mike Patton" INDEX 00 01:35:56FILE "25 Noticias.wav" WAVE INDEX 01 00:00:00 TRACK 26 AUDIO TITLE "Catalina Island" PERFORMER "Mike Patton" INDEX 00 00:15:40FILE "26 Catalina Island.wav" WAVE INDEX 01 00:00:00 TRACK 27 AUDIO TITLE "Supercharged" PERFORMER "Mike Patton" INDEX 00 01:17:36FILE "27 Supercharged.wav" WAVE INDEX 01 00:00:00 TRACK 28 AUDIO TITLE "Massage Parlor" PERFORMER "Mike Patton" INDEX 00 00:49:44FILE "28 Massage Parlor.wav" WAVE INDEX 01 00:00:00FILE "29 Full Body Tourettes.wav" WAVE TRACK 29 AUDIO TITLE "Full Body Tourettes" PERFORMER "Mike Patton" INDEX 01 00:00:00FILE "30 Epilogue - In My Dreams.wav" WAVE TRACK 30 AUDIO TITLE "Epilogue - In My Dreams" PERFORMER "Mike Patton" INDEX 01 00:00:00FILE "31 Friction.wav" WAVE TRACK 31 AUDIO TITLE "Friction" PERFORMER "Mike Patton" INDEX 01 00:00:00FILE "32 Epiphany.wav" WAVE TRACK 32 AUDIO TITLE "Epiphany" PERFORMER "Mike Patton" INDEX 01 00:00:00


Трекер:  [ 12-Ноя-2011 05:45 ]

  

Скачать .torrent

Размер .torrent файла 29 KB


Размер: 340 MB
Хэш (hash) релиза: 9b31130bfd4c9d226864aa8111b450df80f91d

Торренты, похожие на Адреналин 2: Высокое напряжение Crank: High Voltage скачать торрент

Форум Название Автор Размер S L Добавлен
Саундтреки к фильмам и мультфильмам (mp3) ·· (Score) Адреналин 2: Высокое напряжение / Crank: High Voltage (by Mike Patton) - 2009, MP3, 320 kbps Galfimbul 133864829128 MB 2 0 1321003250

12:20

11-Ноя-11

bot

Топик был перенесен в форум Саундтреки к фильмам и мультфильмам (lossless)

Перенес Mos

Хотите добавить комментарий к записи скачать торрент Адреналин 2: Высокое напряжение Crank: High Voltage

!Обратная связь