Скачать через торрент [iPad] Напарник бесплатно русская версия torrent активатор

Если у вас наблюдаются проблемы со скриншотами, переходом по ссылками, скачиванием торрентов - проблемы в блокировщике рекламы AdBlock. #хорошегоДня!


Статистика раздачи
Размер:  1.51 GB   |    Зарегистрирован:  3 дня   |    .torrent скачан:  5 раз   |   
Раздают:  1  
   
Загрузка...
 
Автор Сообщение

Galfimbul

avatar Galfimbul


Напарник
«Новорождён и очень опасен»

5.274 / 10 / 10
Год выпуска: 2017
Страна: Россия
Жанр: Комедия, приключения
Продолжительность: 01:32:35

Перевод: Не требуется
Оригинальная аудиодорожка: Есть
Cубтитры: Нет
Режиссёр: Александр Андрющенко
Сценарий: Андрей Золотарев
Продюсер: Сергей Сельянов, Михаил Врубель, Александр Андрющенко
Оператор: Михаил Милашин
Композитор: Иван Бурляев, Дмитрий Носков
Художник: Юрий Фоменко, Дарья Зонова
В ролях: Сергей Гармаш, Андрей Назимов, Лиза Арзамасова, Ксения Лаврова-Глинка, Ян Цапник, Филипп Яицкий, Андрей Золотарев, Сахат Дурсунов, Евгений Коряковский, Юнчен Жуань

Сборы в России: $2 475 459

Премьера (РФ): 14 сентября 2017, «Наше Кино»

Описание: Неудачная спецоперация заканчивается для майора Хромова переселением в тело маленького ребенка. И всему виной проклятие гадалки! Но даже пересев из полицейской машины в детскую коляску, он умудряется доставить немало хлопот преступному синдикату на Дальнем Востоке. При этом мама ребенка не подозревает, что ее сын способен вести жесткие допросы, а папа вынужден стать невольным «напарником» Хромова. Ведь для того, чтобы вернуть все на свои места, им предстоит закончить спецоперацию, а значит, отец с младенцем начинают охоту на самого опасного главаря местной мафии.Качество исходника: WEB-DL 1080p
Качество: WEB-DLRip
Тип: SD (576p)
Контейнер: M4V
Видео: H.264, 1024x432, 2.40:1, 2 200 Kbps, 23.976 fps

Аудио: Русский/Оригинальная дорожка , AAC / 2.0 / 128 Kbps / 48.0 KHz
Sort Name: Напарник
XID: Apple:vendor_id:2017-921501
contentID: 1290257843
Copyright: © 2017 Кинокомпания «Водород», Кинокомпания СТВ, CGF
Screenwriters: Андрей Золотарев
Producers: Сергей Сельянов, Михаил Врубель, Александр Андрющенко
Director: Александр Андрющенко
Cast: Сергей Гармаш, Андрей Назимов, Лиза Арзамасова, Ксения Лаврова-Глинка, Ян Цапник, Филипп Яицкий, Андрей Золотарев, Сахат Дурсунов, Евгений Коряковский, Юнчен Жуань
Studio: Кинокомпания «Водород», Кинокомпания СТВ, CGF
Rating: 134
Long Description: Неудачная спецоперация заканчивается для майора Хромова переселением в тело маленького ребенка. И всему виной проклятие гадалки! Но даже пересев из полицейской машины в детскую коляску, он умудряется доставить немало хлопот преступному синдикату на Дальнем Востоке. При этом мама ребенка не подозревает, что ее сын способен вести жесткие допросы, а папа вынужден стать невольным "напарником" Хромова. Ведь для того, чтобы вернуть все на свои места, им предстоит закончить спецоперацию, а значит, отец с младенцем начинают охоту на самого опасного главаря местной мафии.
Description: Неудачная спецоперация заканчивается для майора Хромова переселением в тело маленького ребенка. И всему виной проклятие гадалки! Но даже пересев из полицейской машины в детскую коляску, он умудряется доставить немало хлопот преступному синдикату на Дальнем Востоке.
Release Date: 2017-01-01T08:00:00Z
Genre: Комедии
Artist: Александр Андрющенко
Name: Напарник
General
Complete name : /Users/imac/HandBrake/Naparnik.(SD).(pk).m4v
Format : MPEG-4
Codec ID : M4V
File size : 1.51 GiB
Duration : 1h 32mn
Overall bit rate mode : Variable
Overall bit rate : 2 334 Kbps
Movie name : Напарник
Performer : Александр Андрющенко
Director : Александр Андрющенко
Actor : Сергей Гармаш / Андрей Назимов / Лиза Арзамасова / Ксения Лаврова-Глинка / Ян Цапник / Филипп Яицкий / Андрей Золотарев / Сахат Дурсунов / Евгений Коряковский / Юнчен Жуань
Screenplay by : Андрей Золотарев
Producer : Сергей Сельянов / Михаил Врубель / Александр Андрющенко
Production studio : Кинокомпания «Водород», Кинокомпания СТВ, CGF
Genre : Комедии
ContentType : Short Film
Description : Неудачная спецоперация заканчивается для майора Хромова переселением в тело маленького ребенка. И всему виной проклятие гадалки! Но даже пересев из полицейской машины в детскую коляску, он умудряется доставить немало хлопот преступному синдикату на Дальнем Востоке.
Recorded date : UTC 2017-01-01 08:00:00
Encoded date : UTC 2017-10-13 09:41:27
Tagged date : UTC 2017-10-13 09:41:58
Copyright : © 2017 Кинокомпания «Водород», Кинокомпания СТВ, CGF
Cover : Yes
Rating : None
Title/Sort : Напарник
LongDescription : Неудачная спецоперация заканчивается для майора Хромова переселением в тело маленького ребенка. И всему виной проклятие гадалки! Но даже пересев из полицейской машины в детскую коляску, он умудряется доставить немало хлопот преступному синдикату на Дальнем Востоке. При этом мама ребенка не подозревает, что ее сын способен вести жесткие допросы, а папа вынужден стать невольным "напарником" Хромова. Ведь для того, чтобы вернуть все на свои места, им предстоит закончить спецоперацию, а значит, отец с младенцем начинают охоту на самого опасного главаря местной мафии.
AppleStoreCatalogID : 1290257843
Vendor : Apple:vendor_id:2017-921501
ContentRating : ru-movie|12+|200|

Video #1
ID : 1
Format : AVC
Format/Info : Advanced Video Codec
Format profile : High@L3.1
Format settings, CABAC : Yes
Format settings, ReFrames : 9 frames
Codec ID : avc1
Codec ID/Info : Advanced Video Coding
Duration : 1h 32mn
Source duration : 1h 32mn
Bit rate : 2 200 Kbps
Width : 1 024 pixels
Height : 432 pixels
Display aspect ratio : 2.40:1
Frame rate mode : Variable
Frame rate : 23.976 fps
Minimum frame rate : 23.974 fps
Maximum frame rate : 23.981 fps
Color space : YUV
Chroma subsampling : 4:2:0
Bit depth : 8 bits
Scan type : Progressive
Bits/(Pixel*Frame) : 0.207
Stream size : 1.42 GiB (94%)
Source stream size : 1.42 GiB (94%)
Title : Main Program
Writing library : x264 core 148 r2708 86b7198
Encoding settings : cabac=1 / ref=9 / deblock=1:0:0 / analyse=0x3:0x113 / me=umh / subme=9 / psy=1 / psy_rd=1.00:0.00 / mixed_ref=1 / me_range=32 / chroma_me=1 / trellis=1 / 8x8dct=1 / cqm=0 / deadzone=21,11 / fast_pskip=1 / chroma_qp_offset=-2 / threads=13 / lookahead_threads=1 / sliced_threads=0 / nr=0 / decimate=1 / interlaced=0 / bluray_compat=0 / constrained_intra=0 / bframes=6 / b_pyramid=2 / b_adapt=2 / b_bias=0 / direct=1 / weightb=1 / open_gop=0 / weightp=2 / keyint=240 / keyint_min=24 / scenecut=40 / intra_refresh=0 / rc_lookahead=40 / rc=2pass / mbtree=1 / bitrate=2200 / ratetol=1.0 / qcomp=0.60 / qpmin=0 / qpmax=69 / qpstep=4 / cplxblur=20.0 / qblur=0.5 / ip_ratio=1.40 / aq=1:1.00
Language : Russian
Encoded date : UTC 2017-10-13 09:41:27
Tagged date : UTC 2017-10-13 09:41:30
Color range : Limited
Color primaries : BT.709
Transfer characteristics : BT.709
Matrix coefficients : BT.709

Video #2
ID : 4
Format : JPEG
Codec ID : jpeg
Duration : 1h 32mn
Bit rate mode : Variable
Bit rate : 1 022 bps
Width : 640 pixels
Height : 270 pixels
Display aspect ratio : 2.40:1
Frame rate mode : Variable
Frame rate : 0.003 fps
Minimum frame rate : 0.001 fps
Maximum frame rate : 0.004 fps
Color space : YUV
Chroma subsampling : 4:2:0
Bit depth : 8 bits
Compression mode : Lossy
Bits/(Pixel*Frame) : 1.971
Stream size : 582 KiB (0%)
Title : Chapter Images
Language : Russian
Encoded date : UTC 2017-10-13 09:41:35
Tagged date : UTC 2017-10-13 09:41:35

Audio
ID : 2
Format : AAC
Format/Info : Advanced Audio Codec
Format profile : LC
Codec ID : 40
Duration : 1h 32mn
Bit rate mode : Variable
Bit rate : 127 Kbps
Maximum bit rate : 173 Kbps
Channel(s) : 2 channels
Channel positions : Front: L R
Sampling rate : 48.0 KHz
Compression mode : Lossy
Stream size : 83.9 MiB (5%)
Title : Russian Stereo
Language : Russian
Encoded date : UTC 2017-10-13 09:41:27
Tagged date : UTC 2017-10-13 09:41:32

Menu #1
00:00:00.000 : 1
00:07:11.958 : 2
00:13:16.041 : 3
00:20:34.041 : 4
00:27:24.874 : 5
00:32:59.874 : 6
00:38:10.749 : 7
00:45:00.332 : 8
00:49:46.832 : 9
00:57:03.165 : 10
01:03:57.123 : 11
01:10:10.123 : 12
01:16:10.081 : 13
01:20:38.581 : 14

Menu #2
ID : 3
Codec ID : text
Duration : 1h 32mn
Language : Russian
Encoded date : UTC 2017-10-13 09:41:32
Tagged date : UTC 2017-10-13 09:41:32
00:00:00.000 : 1
00:07:11.958 : 2
00:13:16.041 : 3
00:20:34.041 : 4
00:27:24.874 : 5
00:32:59.874 : 6
00:38:10.749 : 7
00:45:00.332 : 8
00:49:46.832 : 9
00:57:03.165 : 10
01:03:57.123 : 11
01:10:10.123 : 12
01:16:10.081 : 13
01:20:38.581 : 14
Bit rate mode : VBR
x264 [info]: frame I:1862  Avg QP:13.10  size: 71365
x264 [info]: frame P:36373 Avg QP:16.06  size: 22385
x264 [info]: frame B:94964 Avg QP:18.48  size:  6114
x264 [info]: consecutive B-frames:  3.3%  7.7%  6.5% 65.6%  6.7%  9.2%  1.1%
x264 [info]: mb I  I16..4:  7.2% 69.5% 23.4%
x264 [info]: mb P  I16..4:  1.1%  7.4%  2.2%  P16..4: 35.2% 30.5% 17.5%  0.0%  0.0%    skip: 6.1%
x264 [info]: mb B  I16..4:  0.1%  0.7%  0.2%  B16..8: 38.5% 11.7%  3.3%  direct: 5.1%  skip:40.4%  L0:40.1% L1:45.4% BI:14.5%
x264 [info]: 8x8 transform intra:68.9% inter:65.1%
x264 [info]: coded y,uvDC,uvAC intra: 88.3% 89.5% 74.2% inter: 27.3% 22.9% 5.3%
x264 [info]: i16 v,h,dc,p: 22% 17%  9% 52%
x264 [info]: i8 v,h,dc,ddl,ddr,vr,hd,vl,hu: 12% 10%  6%  9% 13% 13% 13% 12% 13%
x264 [info]: i4 v,h,dc,ddl,ddr,vr,hd,vl,hu: 12% 10%  3%  9% 14% 14% 14% 11% 13%
x264 [info]: i8c dc,h,v,p: 43% 23% 20% 15%
x264 [info]: Weighted P-Frames: Y:2.3% UV:1.3%
x264 [info]: ref P L0: 56.1% 10.6% 15.6%  5.6%  4.1%  2.7%  2.4%  1.4%  1.4%  0.1%  0.0%
x264 [info]: ref B L0: 81.0%  9.5%  4.1%  1.9%  1.2%  1.0%  1.1%  0.3%
x264 [info]: ref B L1: 96.4%  3.6%
x264 [info]: kb/s:2199.90
Релиз подготовлен для просмотра на Apple TV, iPad, iPhone, iPod Touch.
Для просмотра данного релиза на компьютере с ОС Windows рекомендуется использовать VLC media player

Трекер:  [ 13-Окт-2017 13:12 ]

  

Скачать .torrent

Размер .torrent файла 30 KB


Размер: 1.51 GB
Хэш (hash) релиза: 89e076e4e731c4987a124b41e203d59fc2b0da77

Торренты, похожие на [iPad] Напарник скачать торрент

Форум Название Автор Размер S L Добавлен
Видео (iPhone/iPod Touch/iPad) ·· [iPad] Отпетые напарники / Skiptrace (Ренни Харлин / Renny Harlin ) [2016, Китай, Гонконг, США , Боевик, триллер, комедия, криминал, приключения, WEB-DLRip, SD (576p)] DUB Galfimbul 17961527981.67 GB 0 0 1499634737

00:12

10-Июл-17

Еще никто не оставлял запись к записи скачать торрент [iPad] Напарник . Будь первым!

!Обратная связь