Скачать через торрент Флэш The Flash Фильм бесплатно в хорошем качестве torrent

Скачивайте на UnionPeer.org фильмы через торрент без регистрации. Новинки кино в хорошем качестве через торрент. На UnionPeer.org можно скачать через торрент фильмы 2014 и 2015 годов. Самые новые фильмы.

Скачать торрент Флэш The Flash бесплатно через .torrent фильм мультфильм сериал

Если у вас наблюдаются проблемы со скриншотами, переходом по ссылками, скачиванием торрентов - проблемы в блокировщике рекламы AdBlock. #хорошегоДня!


Статистика раздачи
Размер:  500 MB   |    Зарегистрирован:  4 дня   |    .torrent скачан:  7 раз   |   
Раздают:  1  
   
Загрузка...
 
Автор Сообщение

Galfimbul

avatar Galfimbul


Флэш | The Flash
Год выпуска: 2017
Страна: США
Жанр: фантастика, фэнтези, боевик, драма, приключения
Продолжительность: ~ 00:43:00Перевод: Профессиональный (многоголосый закадровый) | Good People
Режиссёр: Дэвид НаттерВ ролях: Грант Гастин, Кэндис Паттон, Рик Коснетт, Даниэль Панабэйкер, Карлос Вальдес, Томас Кэвэна, Джесси Л. Мартин, Джон Уэсли Шипп, Стивен Амелл, Ёсиэ Бэнкрофт и др.Описание: Из-за несчастного случая судмедэксперт Барри Аллен приобретает способность передвигаться с невероятной скоростью. Этот случай делает из него супергероя, которым он всегда мечтал стать. Защищая город, как ангел-хранитель, делая невозможное, спасая жизни со скоростью вспышки, по подсказке Оливера Куина (Стрела), он берёт себе и соответствующее имя - Флэш. | Качество: HDTVRip
Формат: AVI
Видео: XviD, ~ 1400 kbps, 720x400 (16:9), 23.976 fps
Аудио 1: MP3, 48,0 КГц, 2 ch, 128 kbps - Rus
Аудио 2: MP3, 48,0 КГц, 2 ch, 128 kbps - Eng
Субтитры: отсутствуютРеклама: Присутствует звуковая (два раза в начале и конце по 12 сек.)
Общее
Полное имя                               : F:\GoodPeople\The Flash. Season 4 (HDTVRip l 400p l Good People)\The.Flash.S04E01.HDTVRip.Rus.Eng.GoodPeople.avi
Формат                                   : AVI
Формат/Информация                        : Audio Video Interleave
Размер файла                             : 500 Мбайт
Продолжительность                        : 42 м. 26 с.
Общий поток                              : 1649 Кбит/сек
Программа кодирования                    : VirtualDubMod 1.5.10.3 | www.virtualdub-fr.org || (build 2550/release)
Библиотека кодирования                   : VirtualDubMod build 2550/release

Видео
Идентификатор                            : 0
Формат                                   : MPEG-4 Visual
Профиль формата                          : Advanced Simple@L5
Параметр BVOP формата                    : 1
Параметр QPel формата                    : Нет
Параметр GMC формата                     : Без точки перехода
Параметр матрицы формата                 : Default (MPEG)
Идентификатор кодека                     : XVID
Идентификатор кодека/Подсказка           : XviD
Продолжительность                        : 42 м. 26 с.
Битрейт                                  : 1379 Кбит/сек
Ширина                                   : 720 пикселей
Высота                                   : 400 пикселей
Соотношение сторон                       : 16:9
Частота кадров                           : 23,976 (24000/1001) кадра/сек
Цветовое пространство                    : YUV
Субдискретизация насыщенности            : 4:2:0
Битовая глубина                          : 8 бит
Тип развёртки                            : Прогрессивная
Метод сжатия                             : С потерями
Бит/(Пиксели*Кадры)                      : 0.200
Размер потока                            : 419 Мбайт (84%)
Библиотека кодирования                   : XviD 73

Аудио #1
Идентификатор                            : 1
Формат                                   : MPEG Audio
Версия формата                           : Version 1
Профиль формата                          : Layer 3
Режим                                    : Joint stereo
Расширение режима                        : MS Stereo
Идентификатор кодека                     : 55
Идентификатор кодека/Подсказка           : MP3
Продолжительность                        : 42 м. 26 с.
Вид битрейта                             : Постоянный
Битрейт                                  : 128 Кбит/сек
Каналы                                   : 2 канала
Частота                                  : 48,0 КГц
Метод сжатия                             : С потерями
Размер потока                            : 38,9 Мбайт (8%)
Выравнивание                             : Соединение по промежуткам
Продолжительность промежутка             : 42  мс. (1,00 видеокадр)
Время предзагрузки промежутка            : 504  мс.

Аудио #2
Идентификатор                            : 2
Формат                                   : MPEG Audio
Версия формата                           : Version 1
Профиль формата                          : Layer 3
Режим                                    : Joint stereo
Расширение режима                        : MS Stereo
Идентификатор кодека                     : 55
Идентификатор кодека/Подсказка           : MP3
Продолжительность                        : 42 м. 26 с.
Вид битрейта                             : Постоянный
Битрейт                                  : 128 Кбит/сек
Каналы                                   : 2 канала
Частота                                  : 48,0 КГц
Метод сжатия                             : С потерями
Размер потока                            : 38,9 Мбайт (8%)
Выравнивание                             : Соединение по промежуткам
Продолжительность промежутка             : 42  мс. (1,00 видеокадр)
Время предзагрузки промежутка            : 504  мс.
Когда раздача ведётся путём добавления новых серий, при каждом добавлении создётся новый торрент. Чтобы начать докачку новой серии, пользователям необходимо сделать следующее:
(1) остановить скачивание,
(2) удалить старый торрент у себя из клиента (старые серии удалять не надо),
(3) скачать новый торрент и запустить его у себя в клиенте вместо старого, при этом указать клиенту путь в старую папку, куда и должно происходить скачивание новых серий.
Ваш клиент при этом должен произвести хеширование (проверку) старой папки (если не производит сам - помогите ему сделать это), и будет докачивать только те серии, которых у вас ещё нет. Старые серии при этом не удаляются, а продолжают раздаваться!
Eсли вы уже удалили старые серии, то предотвратить повторную закачку старых серий можно, отжав галочку в соответсвующих местах при запуске нового торрента. По возможности, желательно не удалять старые серии как можно дольше, чтобы релизёр не столько продолжал раздавать старые серии, а смог сконцентрироваться на новых.


Трекер:  [ 13-Окт-2017 11:18 ]

  

Скачать .torrent

Размер .torrent файла 20 KB


Размер: 500 MB
Хэш (hash) релиза: 214a0a41670c4fa9a75bef424602ac1e41f70568
Подписка на обновления:

Торренты, похожие на Флэш The Flash скачать торрент

Форум Название Автор Размер S L Добавлен
Зарубежные сериалы ·· Флэш / The Flash / Сезон: 4 / Серии: 1 из 23 (Дэвид Наттер / David Nutter) [2017, США, фантастика, боевик, драма, криминал, WEB-DL 1080p] Original + Rus Sub (SFI) Galfimbul 35107405273.27 GB 0 0 1508266489

21:54

17-Окт-17

Зарубежные сериалы ·· Флэш / The Flash / Сезон: 4 / Серии: 1 из 23 (Дэвид Наттер) [2017, США, фантастика, фэнтези, боевик, драма, приключения, WEB-DLRip] MVO (Jaskier) Galfimbul 530423808506 MB 0 0 1507933509

01:25

14-Окт-17

Зарубежные сериалы ·· Флэш / The Flash / Сезон: 4 / Серии: 1 из 23 (Дэвид Наттер) [2017, США, фантастика, фэнтези, боевик, драма, приключения, WEB-DL 720p] MVO (Jaskier) Galfimbul 12507740181.16 GB 0 0 1507933495

01:24

14-Окт-17

Зарубежные сериалы ·· Флэш / The Flash / Сезон: 4 / Серии: 1 из 23 (Дэвид Наттер) [2017, США, фантастика, фэнтези, боевик, драма, приключения, HDTVRip 720p] MVO (Good People) Galfimbul 11543859621.08 GB 0 0 1507883072

11:24

13-Окт-17

Зарубежные сериалы ·· Флэш / The Flash / Сезон: 4 / Серии: 1 из 23 (Дэвид Наттер) [2017, США, фантастика, фэнтези, боевик, драма, приключения, WEB-DLRip] MVO (LostFilm) Galfimbul 530407424506 MB 2 0 1507840113

23:28

12-Окт-17

Зарубежные сериалы ·· Флэш / The Flash / Сезон: 4 / Серии: 1 из 23 (Дэвид Наттер / David Nutter) [2017, США, Фантастика, боевик, драма, приключения, WEBRip 1080p] MVO (Alternative Production) + Original Galfimbul 37603838293.5 GB 0 0 1507839906

23:25

12-Окт-17

Зарубежные сериалы ·· Флэш / The Flash / Сезон: 4 / Серии: 1 из 23 (Дэвид Наттер) [2017, США, фантастика, боевик, драма, приключения, WEB-DLRip] DVO (Gears Media) Galfimbul 561244330535 MB 0 0 1507832836

21:27

12-Окт-17

Зарубежные сериалы ·· Флэш / The Flash / Сезон: 3 / Серии: 1-4 из 23 (Дэвид Наттер) [2016, США, Фантастика, боевик, драма, приключения, WEB-DLRip] MVO (LostFilm) + Original Galfimbul 35328778243.29 GB 0 0 1478636435

23:20

8-Ноя-16

Зарубежные сериалы ·· Флэш / The Flash / Сезон: 3 / Серии: 1-4 из 23 (Дэвид Наттер) [2016, США, фантастика, фэнтези, боевик, драма, приключения, WEB-DL 1080p] MVO (LostFilm) + Original + Sub (Eng) Galfimbul 75798040997.06 GB 0 0 1477729186

11:19

29-Окт-16

Зарубежные сериалы ·· Флэш / The Flash / Сезон: 3 / Серии: 1-4 из 23 (Дэвид Наттер) [2016, США, фантастика, фэнтези, боевик, драма, приключения, HDTVRip] MVO (Студия Jaskier) + Original Galfimbul 16393932801.53 GB 1 4 1477671408

19:16

28-Окт-16

Зарубежные сериалы ·· Флэш / The Flash / Сезон: 3 / Серии: 1-4 из 23 (Дэвид Наттер) [2016, США, фантастика, фэнтези, боевик, драма, приключения, HDTVRip 720p] MVO (Студия Jaskier) + Original Galfimbul 36443519323.39 GB 1 4 1477629669

07:41

28-Окт-16

Зарубежные сериалы ·· Флэш / The Flash / Сезон: 3 / Серии: 1-4 из 23 (Дэвид Наттер) [2016, США, фантастика, фэнтези, боевик, драма, приключения, WEB-DLRip] MVO (LostFilm) Galfimbul 20996915201.96 GB 0 0 1477592548

21:22

27-Окт-16

Зарубежные сериалы ·· Флэш / The Flash / Сезон: 2 / Серии: 1-4 из 23 (Дэвид Наттер) [2015, фантастика, фэнтези, боевик, драма, приключения, WEB-DLRip] MVO (NewStudio) Galfimbul 22753812482.12 GB 0 0 1446072614

01:50

29-Окт-15

Зарубежные сериалы ·· Флэш / Молния / Флеш/ The Flash / Сезон: 2 / Серии: 1-4 из 23 (Дэвид Наттер) [2015, фантастика, фэнтези, боевик, драма, приключения, HDTVRip 720p] MVO (Студия Jaskier) + Original Galfimbul 40695002483.79 GB 0 0 1446074172

02:16

29-Окт-15

Еще никто не оставлял запись к записи скачать торрент Флэш The Flash . Будь первым!

!Обратная связь