Скачать через торрент музыку бесплатно без регистрации torrent

Если у вас наблюдаются проблемы со скриншотами, переходом по ссылками, скачиванием торрентов - проблемы в блокировщике рекламы AdBlock. #хорошегоДня!


Статистика раздачи
Размер:  459 MB   |    Зарегистрирован:  3 дня   |    .torrent скачан:  2 раза   |   
Раздают:  1  
   
Загрузка...
 
Автор Сообщение

Galfimbul

avatar Galfimbul


Colors Of Trance vol.1

Жанр: Trance, Psy-Trance, Goa Trance
Носитель: CD
Страна-производитель диска (релиза): Germany
Год издания: 1999
Издатель (лейбл): Black Flame
Номер по каталогу: 88002
Аудиокодек: FLAC (*.flac)
Тип рипа: tracks+.cue
Битрейт аудио: lossless
Продолжительность: 73:50
Источник (релизер): Фирменный CD
Наличие сканов в содержимом раздачи: нет
Треклист:
01 - Klangstrahler Projekt - Nexxus
02 - Art Of Trance - Madagascar
03 - Star Sounds Orchestra - Hovek Olam
04 - O.V.N.I. - Fountain
05 - Gary Thomas - Desert Wak
06 - D Pirates OD - Chamunda
07 - Moksha - UFD (D-Edit)
08 - Shiva Shidapu - Shiva Devotional
09 - Xerox & Freeman - Kayazulu
Exact Audio Copy V1.0 beta 1 from 15. November 2010

EAC extraction logfile from 4. June 2011, 18:23

Various / Colors Of Trance Vol. 1

Used drive : _NEC DVD_RW ND-4551A Adapter: 0 ID: 0

Read mode : SecureUtilize accurate stream : YesDefeat audio cache : YesMake use of C2 pointers : No

Read offset correction : 48Overread into Lead-In and Lead-Out : NoFill up missing offset samples with silence : YesDelete leading and trailing silent blocks : NoNull samples used in CRC calculations : YesUsed interface : Native Win32 interface for Win NT & 2000Gap handling : Appended to previous track

Used output format : User Defined EncoderSelected bitrate : 128 kBit/sQuality : HighAdd ID3 tag : NoCommand line compressor : C:\Program Files (x86)\Exact Audio Copy\Flac\flac.exeAdditional command line options : -8 -V -T "ARTIST=%a" -T "TITLE=%t" -T "ALBUM=%g" -T "DATE=%y" -T "TRACKNUMBER=%n" -T "TOTALTRACKS=%x" -T "GENRE=%m" -T "ALBUMARTIST=%v" -T "ALBUM ARTIST=%v" -T "COMMENT=EAC Secure Mode, Test & Copy, AccurateRip, FLAC -8" %s

TOC of the extracted CD

Track | Start | Length | Start sector | End sector --------------------------------------------------------- 1 | 0:00.00 | 7:39.01 | 0 | 34425 2 | 7:39.01 | 6:24.18 | 34426 | 63243 3 | 14:03.19 | 9:08.05 | 63244 | 104348 4 | 23:11.24 | 4:57.17 | 104349 | 126640 5 | 28:08.41 | 7:18.17 | 126641 | 159507 6 | 35:26.58 | 10:36.74 | 159508 | 207281 7 | 46:03.57 | 7:39.17 | 207282 | 241723 8 | 53:42.74 | 11:50.10 | 241724 | 294983 9 | 65:33.09 | 8:19.18 | 294984 | 332426

Track 1

Filename D:\myrip\goa\VA\1999 - Colors Of Trance Vol. 1 {Black Flame}\01 - Klangstrahler Projekt - Nexxus.wav

Pre-gap length 0:00:02.00

Peak level 88.5 % Extraction speed 5.3 X Track quality 100.0 % Test CRC 72032230 Copy CRC 72032230 Track not present in AccurateRip database Copy OK

Track 2

Filename D:\myrip\goa\VA\1999 - Colors Of Trance Vol. 1 {Black Flame}\02 - Art Of Trance - Madagascar.wav

Peak level 96.5 % Extraction speed 6.1 X Track quality 100.0 % Test CRC 4F6918A2 Copy CRC 4F6918A2 Track not present in AccurateRip database Copy OK

Track 3

Filename D:\myrip\goa\VA\1999 - Colors Of Trance Vol. 1 {Black Flame}\03 - Star Sounds Orchestra - Hovek Olam.wav

Peak level 96.5 % Extraction speed 7.1 X Track quality 100.0 % Test CRC 36476DB5 Copy CRC 36476DB5 Track not present in AccurateRip database Copy OK

Track 4

Filename D:\myrip\goa\VA\1999 - Colors Of Trance Vol. 1 {Black Flame}\04 - O.V.N.I. - Fountain.wav

Pre-gap length 0:00:01.00

Peak level 97.7 % Extraction speed 7.2 X Track quality 100.0 % Test CRC CF78AB0E Copy CRC CF78AB0E Track not present in AccurateRip database Copy OK

Track 5

Filename D:\myrip\goa\VA\1999 - Colors Of Trance Vol. 1 {Black Flame}\05 - Gary Thomas - Desert Wak.wav

Pre-gap length 0:00:01.00

Peak level 89.1 % Extraction speed 8.1 X Track quality 100.0 % Test CRC 12D23D9F Copy CRC 12D23D9F Track not present in AccurateRip database Copy OK

Track 6

Filename D:\myrip\goa\VA\1999 - Colors Of Trance Vol. 1 {Black Flame}\06 - D Pirates OD - Chamunda.wav

Pre-gap length 0:00:01.00

Peak level 98.8 % Extraction speed 9.0 X Track quality 100.0 % Test CRC AD3B8AE7 Copy CRC AD3B8AE7 Track not present in AccurateRip database Copy OK

Track 7

Filename D:\myrip\goa\VA\1999 - Colors Of Trance Vol. 1 {Black Flame}\07 - Moksha - UFD (D-Edit).wav

Pre-gap length 0:00:00.50

Peak level 100.0 % Extraction speed 8.3 X Track quality 99.9 % Test CRC BE0A6160 Copy CRC BE0A6160 Track not present in AccurateRip database Copy OK

Track 8

Filename D:\myrip\goa\VA\1999 - Colors Of Trance Vol. 1 {Black Flame}\08 - Shiva Shidapu - Shiva Devotional.wav

Pre-gap length 0:00:00.50

Peak level 96.5 % Extraction speed 10.3 X Track quality 100.0 % Test CRC D1DDCCD9 Copy CRC D1DDCCD9 Track not present in AccurateRip database Copy OK

Track 9

Filename D:\myrip\goa\VA\1999 - Colors Of Trance Vol. 1 {Black Flame}\09 - Xerox & Freeman - Kayazulu.wav

Peak level 96.5 % Extraction speed 10.6 X Track quality 100.0 % Test CRC 2E733F44 Copy CRC 2E733F44 Track not present in AccurateRip database Copy OK

None of the tracks are present in the AccurateRip database

No errors occurred

End of status report

==== Log checksum 0351A9B69FF86C80BDACC796E6B93FB781ABFE7C12ED9204E94D2EEF13255696 ====
REM GENRE GoaREM DATE 1999REM DISCID 7E115009REM COMMENT "ExactAudioCopy v1.0b1"PERFORMER "Various"TITLE "Colors Of Trance Vol. 1"FILE "01 - Klangstrahler Projekt - Nexxus.wav" WAVE TRACK 01 AUDIO TITLE "Nexxus" PERFORMER "Klangstrahler Projekt" FLAGS DCP INDEX 01 00:00:00FILE "02 - Art Of Trance - Madagascar.wav" WAVE TRACK 02 AUDIO TITLE "Madagascar" PERFORMER "Art Of Trance" FLAGS DCP INDEX 01 00:00:00FILE "03 - Star Sounds Orchestra - Hovek Olam.wav" WAVE TRACK 03 AUDIO TITLE "Hovek Olam" PERFORMER "Star Sounds Orchestra" FLAGS DCP INDEX 01 00:00:00 TRACK 04 AUDIO TITLE "Fountain" PERFORMER "O.V.N.I." FLAGS DCP INDEX 00 09:07:05FILE "04 - O.V.N.I. - Fountain.wav" WAVE INDEX 01 00:00:00 TRACK 05 AUDIO TITLE "Desert Wak" PERFORMER "Gary Thomas" FLAGS DCP INDEX 00 04:56:17FILE "05 - Gary Thomas - Desert Wak.wav" WAVE INDEX 01 00:00:00 TRACK 06 AUDIO TITLE "Chamunda" PERFORMER "D Pirates OD" FLAGS DCP INDEX 00 07:17:17FILE "06 - D Pirates OD - Chamunda.wav" WAVE INDEX 01 00:00:00 TRACK 07 AUDIO TITLE "UFD (D-Edit)" PERFORMER "Moksha" FLAGS DCP INDEX 00 10:36:24FILE "07 - Moksha - UFD (D-Edit).wav" WAVE INDEX 01 00:00:00 TRACK 08 AUDIO TITLE "Shiva Devotional" PERFORMER "Shiva Shidapu" FLAGS DCP INDEX 00 07:38:42FILE "08 - Shiva Shidapu - Shiva Devotional.wav" WAVE INDEX 01 00:00:00FILE "09 - Xerox & Freeman - Kayazulu.wav" WAVE TRACK 09 AUDIO TITLE "Kayazulu" PERFORMER "Xerox & Freeman" FLAGS DCP INDEX 01 00:00:00
Started at: пятница, 13. 10. 2017. - 8:42.439 files found

1 -===- f:\Music G\bulenat\1999 - Colors Of Trance Vol. 1 {Black Flame}\01 - Klangstrahler Projekt - Nexxus.flac Extracted successfully Conclusion: this track is CDDA with probability 99% Tempfile successfully deleted.

2 -===- f:\Music G\bulenat\1999 - Colors Of Trance Vol. 1 {Black Flame}\02 - Art Of Trance - Madagascar.flac Extracted successfully Conclusion: this track is CDDA with probability 100% Tempfile successfully deleted.

3 -===- f:\Music G\bulenat\1999 - Colors Of Trance Vol. 1 {Black Flame}\03 - Star Sounds Orchestra - Hovek Olam.flac Extracted successfully Conclusion: this track is CDDA with probability 100% Tempfile successfully deleted.

4 -===- f:\Music G\bulenat\1999 - Colors Of Trance Vol. 1 {Black Flame}\04 - O.V.N.I. - Fountain.flac Extracted successfully Conclusion: this track is CDDA with probability 100% Tempfile successfully deleted.

5 -===- f:\Music G\bulenat\1999 - Colors Of Trance Vol. 1 {Black Flame}\05 - Gary Thomas - Desert Wak.flac Extracted successfully Conclusion: this track is CDDA with probability 100% Tempfile successfully deleted.

6 -===- f:\Music G\bulenat\1999 - Colors Of Trance Vol. 1 {Black Flame}\06 - D Pirates OD - Chamunda.flac Extracted successfully Conclusion: this track is CDDA with probability 100% Tempfile successfully deleted.

7 -===- f:\Music G\bulenat\1999 - Colors Of Trance Vol. 1 {Black Flame}\07 - Moksha - UFD (D-Edit).flac Extracted successfully Conclusion: this track is CDDA with probability 99% Tempfile successfully deleted.

8 -===- f:\Music G\bulenat\1999 - Colors Of Trance Vol. 1 {Black Flame}\08 - Shiva Shidapu - Shiva Devotional.flac Extracted successfully Conclusion: this track is CDDA with probability 100% Tempfile successfully deleted.

9 -===- f:\Music G\bulenat\1999 - Colors Of Trance Vol. 1 {Black Flame}\09 - Xerox & Freeman - Kayazulu.flac Extracted successfully Conclusion: this track is CDDA with probability 100% Tempfile successfully deleted.

Finished at: пятница, 13. 10. 2017. - 8:45.29 (operation time: 0:02.46)
ПРОСЬБА НЕ ПОКИДАТЬ РАЗДАЧУ

Трекер:  [ 13-Окт-2017 09:01 ]

  

Скачать .torrent

Размер .torrent файла 19 KB


Размер: 459 MB
Хэш (hash) релиза: 363dad491ed0c82969e62e9f6e722c131848f695

Еще никто не оставлял запись к записи скачать торрент . Будь первым!

!Обратная связь