Скачать через торрент Напарник бесплатно русская версия torrent активатор

Если у вас наблюдаются проблемы со скриншотами, переходом по ссылками, скачиванием торрентов - проблемы в блокировщике рекламы AdBlock. #хорошегоДня!


Статистика раздачи
Размер:  2.97 GB   |    Зарегистрирован:  4 дня   |    .torrent скачан:  9 раз   |   
Раздают:  4  
   
Загрузка...
 
Автор Сообщение

Galfimbul

avatar Galfimbul


Напарник
«Новорождён и очень опасен»

5.274 / 10 / 10
Год выпуска: 2017
Страна: Россия
Жанр: Комедия, приключения
Продолжительность: 01:32:35

Перевод: Не требуется
Оригинальная аудиодорожка: Есть
Cубтитры: Нет
Режиссёр: Александр Андрющенко
Сценарий: Андрей Золотарев
Продюсер: Сергей Сельянов, Михаил Врубель, Александр Андрющенко
Оператор: Михаил Милашин
Композитор: Иван Бурляев, Дмитрий Носков
Художник: Юрий Фоменко, Дарья Зонова
В ролях: Сергей Гармаш, Андрей Назимов, Лиза Арзамасова, Ксения Лаврова-Глинка, Ян Цапник, Филипп Яицкий, Андрей Золотарев, Сахат Дурсунов, Евгений Коряковский, Юнчен Жуань

Сборы в России: $2 475 459

Премьера (РФ): 14 сентября 2017, «Наше Кино»

Описание: Неудачная спецоперация заканчивается для майора Хромова переселением в тело маленького ребенка. И всему виной проклятие гадалки! Но даже пересев из полицейской машины в детскую коляску, он умудряется доставить немало хлопот преступному синдикату на Дальнем Востоке. При этом мама ребенка не подозревает, что ее сын способен вести жесткие допросы, а папа вынужден стать невольным «напарником» Хромова. Ведь для того, чтобы вернуть все на свои места, им предстоит закончить спецоперацию, а значит, отец с младенцем начинают охоту на самого опасного главаря местной мафии.Качество исходника: WEB-DL 720p (NNMClub)
Качество: WEB-DL
Тип: HD (720p)
Контейнер: M4V
Видео: H.264, 1280x536, 2.40:1, 4 040 Kbps, 24.000 fps

Аудио 1: Русский/Оригинальная дорожка , AAC / 2.0 / 160 Kbps / 48.0 KHz
Аудио 2: Русский/Оригинальная дорожка , AC-3 / 5.1 / 384 Kbps / 48.0 KHz
Sort Name: Напарник
XID: Apple:vendor_id:2017-921501
contentID: 1290257843
Copyright: © 2017 Кинокомпания «Водород», Кинокомпания СТВ, CGF
Screenwriters: Андрей Золотарев
Producers: Сергей Сельянов, Михаил Врубель, Александр Андрющенко
Director: Александр Андрющенко
Cast: Сергей Гармаш, Андрей Назимов, Лиза Арзамасова, Ксения Лаврова-Глинка, Ян Цапник, Филипп Яицкий, Андрей Золотарев, Сахат Дурсунов, Евгений Коряковский, Юнчен Жуань
Studio: Кинокомпания «Водород», Кинокомпания СТВ, CGF
Rating: 134
Long Description: Неудачная спецоперация заканчивается для майора Хромова переселением в тело маленького ребенка. И всему виной проклятие гадалки! Но даже пересев из полицейской машины в детскую коляску, он умудряется доставить немало хлопот преступному синдикату на Дальнем Востоке. При этом мама ребенка не подозревает, что ее сын способен вести жесткие допросы, а папа вынужден стать невольным "напарником" Хромова. Ведь для того, чтобы вернуть все на свои места, им предстоит закончить спецоперацию, а значит, отец с младенцем начинают охоту на самого опасного главаря местной мафии.
Description: Неудачная спецоперация заканчивается для майора Хромова переселением в тело маленького ребенка. И всему виной проклятие гадалки! Но даже пересев из полицейской машины в детскую коляску, он умудряется доставить немало хлопот преступному синдикату на Дальнем Востоке.
Release Date: 2017-01-01T08:00:00Z
Genre: Комедии
Artist: Александр Андрющенко
Name: Напарник
General
Complete name : /Users/imac/HandBrake/Naparnik.WEB-DL.720p.m4v
Format : MPEG-4
Codec ID : M4V
File size : 2.97 GiB
Duration : 1h 32mn
Overall bit rate mode : Variable
Overall bit rate : 4 590 Kbps
Movie name : Напарник
Performer : Александр Андрющенко
Director : Александр Андрющенко
Actor : Сергей Гармаш / Андрей Назимов / Лиза Арзамасова / Ксения Лаврова-Глинка / Ян Цапник / Филипп Яицкий / Андрей Золотарев / Сахат Дурсунов / Евгений Коряковский / Юнчен Жуань
Screenplay by : Андрей Золотарев
Producer : Сергей Сельянов / Михаил Врубель / Александр Андрющенко
Production studio : Кинокомпания «Водород», Кинокомпания СТВ, CGF
Genre : Комедии
ContentType : Short Film
Description : Неудачная спецоперация заканчивается для майора Хромова переселением в тело маленького ребенка. И всему виной проклятие гадалки! Но даже пересев из полицейской машины в детскую коляску, он умудряется доставить немало хлопот преступному синдикату на Дальнем Востоке.
Recorded date : UTC 2017-01-01 08:00:00
Encoded date : UTC 2017-10-12 23:46:53
Tagged date : UTC 2017-10-12 23:47:59
Copyright : © 2017 Кинокомпания «Водород», Кинокомпания СТВ, CGF
Cover : Yes
Rating : None
Title/Sort : Напарник
LongDescription : Неудачная спецоперация заканчивается для майора Хромова переселением в тело маленького ребенка. И всему виной проклятие гадалки! Но даже пересев из полицейской машины в детскую коляску, он умудряется доставить немало хлопот преступному синдикату на Дальнем Востоке. При этом мама ребенка не подозревает, что ее сын способен вести жесткие допросы, а папа вынужден стать невольным "напарником" Хромова. Ведь для того, чтобы вернуть все на свои места, им предстоит закончить спецоперацию, а значит, отец с младенцем начинают охоту на самого опасного главаря местной мафии.
HDVideo : Yes
AppleStoreCatalogID : 1290257843
Vendor : Apple:vendor_id:2017-921501
ContentRating : ru-movie|12+|200|

Video #1
ID : 1
Format : AVC
Format/Info : Advanced Video Codec
Format profile : Main@L3.1
Format settings, CABAC : No
Format settings, ReFrames : 2 frames
Codec ID : avc1
Codec ID/Info : Advanced Video Coding
Duration : 1h 32mn
Bit rate : 4 040 Kbps
Width : 1 280 pixels
Height : 536 pixels
Display aspect ratio : 2.40:1
Frame rate mode : Variable
Frame rate : 24.000 fps
Minimum frame rate : 23.810 fps
Maximum frame rate : 24.390 fps
Color space : YUV
Chroma subsampling : 4:2:0
Bit depth : 8 bits
Scan type : Progressive
Bits/(Pixel*Frame) : 0.245
Stream size : 2.61 GiB (88%)
Title : Main Program
Language : Russian
Encoded date : UTC 2017-10-12 23:46:53
Tagged date : UTC 2017-10-12 23:47:25
Color range : Limited
Color primaries : BT.709
Transfer characteristics : BT.709
Matrix coefficients : BT.709

Video #2
ID : 5
Format : JPEG
Codec ID : jpeg
Duration : 1h 32mn
Bit rate mode : Variable
Bit rate : 1 038 bps
Width : 640 pixels
Height : 268 pixels
Display aspect ratio : 2.40:1
Frame rate mode : Variable
Frame rate : 0.003 fps
Minimum frame rate : 0.001 fps
Maximum frame rate : 0.004 fps
Color space : YUV
Chroma subsampling : 4:2:0
Bit depth : 8 bits
Compression mode : Lossy
Bits/(Pixel*Frame) : 2.017
Stream size : 591 KiB (0%)
Title : Chapter Images
Language : Russian
Encoded date : UTC 2017-10-12 23:47:28
Tagged date : UTC 2017-10-12 23:47:28

Audio #1
ID : 2
Format : AAC
Format/Info : Advanced Audio Codec
Format profile : LC
Codec ID : 40
Duration : 1h 32mn
Bit rate mode : Variable
Bit rate : 158 Kbps
Maximum bit rate : 225 Kbps
Channel(s) : 2 channels
Channel positions : Front: L R
Sampling rate : 48.0 KHz
Compression mode : Lossy
Stream size : 105 MiB (3%)
Title : Russian Stereo
Language : Russian
Encoded date : UTC 2017-10-12 23:46:53
Tagged date : UTC 2017-10-12 23:46:58

Audio #2
ID : 3
Format : AC-3
Format/Info : Audio Coding 3
Mode extension : CM (complete main)
Format settings, Endianness : Big
Codec ID : ac-3
Duration : 1h 32mn
Bit rate mode : Constant
Bit rate : 384 Kbps
Channel(s) : 6 channels
Channel positions : Front: L C R, Side: L R, LFE
Sampling rate : 48.0 KHz
Bit depth : 16 bits
Compression mode : Lossy
Stream size : 254 MiB (8%)
Title : Russian DD 5.1
Language : Russian
Encoded date : UTC 2017-10-12 23:46:53
Tagged date : UTC 2017-10-12 23:46:58

Menu #1
00:00:00.000 : 1
00:07:11.958 : 2
00:13:16.041 : 3
00:20:34.041 : 4
00:27:24.874 : 5
00:32:59.874 : 6
00:38:10.749 : 7
00:45:00.332 : 8
00:49:46.832 : 9
00:57:03.165 : 10
01:03:57.123 : 11
01:10:10.123 : 12
01:16:10.081 : 13
01:20:38.581 : 14

Menu #2
ID : 4
Codec ID : text
Duration : 1h 32mn
Language : Russian
Encoded date : UTC 2017-10-12 23:47:25
Tagged date : UTC 2017-10-12 23:47:25
00:00:00.000 : 1
00:07:11.958 : 2
00:13:16.041 : 3
00:20:34.041 : 4
00:27:24.874 : 5
00:32:59.874 : 6
00:38:10.749 : 7
00:45:00.332 : 8
00:49:46.832 : 9
00:57:03.165 : 10
01:03:57.123 : 11
01:10:10.123 : 12
01:16:10.081 : 13
01:20:38.581 : 14
Bit rate mode : VBR
Релиз подготовлен для просмотра на Apple TV, iPad, iPhone, iPod Touch.
Для просмотра данного релиза на компьютере с ОС Windows рекомендуется использовать VLC media player

Трекер:  [ 13-Окт-2017 03:12 ]

  

Скачать .torrent

Размер .torrent файла 30 KB


Размер: 2.97 GB
Хэш (hash) релиза: b7ac0b592f91978ed27a40520c09f253ac9688f8

Торренты, похожие на Напарник скачать торрент

Форум Название Автор Размер S L Добавлен
Видео (iPhone/iPod Touch/iPad) ·· Напарник (Александр Андрющенко) [2017, Россия, Комедия, приключения, WEB-DLRip, SD (480p)] Original Galfimbul 994999641949 MB 0 0 1507891347

13:42

13-Окт-17

Видео (iPhone/iPod Touch/iPad) ·· [iPad] Напарник (Александр Андрющенко) [2017, Россия, Комедия, приключения, WEB-DLRip, SD (576p)] Original Galfimbul 16211440191.51 GB 0 0 1507889541

13:12

13-Окт-17

Видео (iPhone/iPod Touch/iPad) ·· [ATV3] Напарник (Александр Андрющенко) [2017, Россия, Комедия, приключения, WEB-DL, HD (1080p)] Original Galfimbul 35319067323.29 GB 2 0 1507851757

02:42

13-Окт-17

Видео (iPhone/iPod Touch/iPad) ·· [iPad] Отпетые напарники / Skiptrace (Ренни Харлин / Renny Harlin ) [2016, Китай, Гонконг, США , Боевик, триллер, комедия, криминал, приключения, WEB-DLRip, SD (576p)] DUB Galfimbul 17961527981.67 GB 0 0 1499634737

00:12

10-Июл-17

Видео (iPhone/iPod Touch/iPad) ·· [ATV3] Отпетые напарники / Skiptrace (Ренни Харлин / Renny Harlin ) [2016, Китай, Гонконг, США , Боевик, триллер, комедия, криминал, приключения, WEB-DL, HD (1080p)] DUB Galfimbul 39770610543.7 GB 0 0 1499602353

15:12

9-Июл-17

Еще никто не оставлял запись к записи скачать торрент Напарник . Будь первым!

!Обратная связь