Luther torrent

UnionPeer.org . . UnionPeer.org 2014 2015 . .

Luther .torrent

, , - AdBlock. #!


16.73 GB   |    :  6    |    .torrent :  10    |   
1  
   
...
 

Galfimbul

avatar Galfimbul


| Luther , ?
: 2011 (2 )
:
: , , ,
: ~ 01:43:00
: ( ) Spike
: (TrueTransLate), : / Sam Miller : ( ), (- ), ( ), - ( ), - ( ), ( ), ( ), ( ), ( ), (), ( ), ( ) .: . , . , , , , . , ,
<div class="sp-wrap">
<div class="sp-head folded">. :</div>
<div class="sp-body">
Spike miha2154

: retif, Lori2014, dark104, cepylka
: cepylka</div>
</div>
[b]:
BDRip 1080p
: MKV
: H.264
: AC3, DTS
: MPEG-4 AVC, 1920x1080 (16:9), 25.000 fps, 10.0 Mb/s, 0.193 bpp
1: [] AC3, 48 kHz, 2 ch, 192 kbps | Spike
2: [] DTS, 48 kHz, 6 ch, 1509 kbps
: , (SRT)
:
General
Unique ID : 252880018452482590767081122165116090078 (0xBE3EEB844CB97DB09F049A02C683B6DE)
Complete name : E:\...\Luther.S02.1080p.BDRip\Luther.S02E01E02.1080.BDRip.Rus.Eng.mkv
Format : Matroska
Format version : Version 4 / Version 2
File size : 8.38 GiB
Duration : 1 h 42 min
Overall bit rate : 11.7 Mb/s
Encoded date : UTC 2017-10-12 03:46:16
Writing application : mkvmerge v7.3.0 ('Nouages') 64bit built on Oct 22 2014 18:53:34
Writing library : libebml v1.3.0 + libmatroska v1.4.1

Video
ID : 1
Format : AVC
Format/Info : Advanced Video Codec
Format profile : High@L4.1
Format settings : CABAC / 4 Ref Frames
Format settings, CABAC : Yes
Format settings, RefFrames : 4 frames
Codec ID : V_MPEG4/ISO/AVC
Duration : 1 h 42 min
Bit rate : 10 000 kb/s
Width : 1 920 pixels
Height : 1 080 pixels
Display aspect ratio : 16:9
Frame rate mode : Constant
Frame rate : 25.000 FPS
Color space : YUV
Chroma subsampling : 4:2:0
Bit depth : 8 bits
Scan type : Progressive
Bits/(Pixel*Frame) : 0.193
Stream size : 7.16 GiB (85%)
Writing library : x264 core 146 r2538 121396c
Encoding settings : cabac=1 / ref=4 / deblock=1:-3:-3 / analyse=0x3:0x133 / me=umh / subme=10 / psy=1 / psy_rd=1.00:0.00 / mixed_ref=1 / me_range=48 / chroma_me=1 / trellis=2 / 8x8dct=1 / cqm=0 / deadzone=21,11 / fast_pskip=0 / chroma_qp_offset=-2 / threads=6 / lookahead_threads=4 / sliced_threads=0 / nr=0 / decimate=0 / interlaced=0 / bluray_compat=0 / constrained_intra=0 / bframes=6 / b_pyramid=0 / b_adapt=2 / b_bias=0 / direct=0 / weightb=1 / open_gop=0 / weightp=2 / keyint=240 / keyint_min=24 / scenecut=40 / intra_refresh=0 / rc_lookahead=60 / rc=2pass / mbtree=1 / bitrate=10000 / ratetol=1.0 / qcomp=0.70 / qpmin=0 / qpmax=69 / qpstep=4 / cplxblur=20.0 / qblur=0.5 / ip_ratio=1.40 / aq=1:1.00
Default : Yes
Forced : No

Audio #1
ID : 2
Format : AC-3
Format/Info : Audio Coding 3
Format settings, Endianness : Big
Codec ID : A_AC3
Duration : 1 h 42 min
Bit rate mode : Constant
Bit rate : 192 kb/s
Channel(s) : 2 channels
Channel positions : Front: L R
Sampling rate : 48.0 kHz
Frame rate : 31.250 FPS (1536 SPF)
Bit depth : 16 bits
Compression mode : Lossy
Stream size : 141 MiB (2%)
Title : Spike
Language : Russian
Service kind : Complete Main
Default : Yes
Forced : No

Audio #2
ID : 3
Format : DTS
Format/Info : Digital Theater Systems
Mode : 16
Format settings, Endianness : Big
Codec ID : A_DTS
Duration : 1 h 42 min
Bit rate mode : Constant
Bit rate : 1 509 kb/s
Channel(s) : 6 channels
Channel positions : Front: L C R, Side: L R, LFE
Sampling rate : 48.0 kHz
Frame rate : 93.750 FPS (512 SPF)
Bit depth : 24 bits
Compression mode : Lossy
Stream size : 1.08 GiB (13%)
Language : English
Default : No
Forced : No

Text #1
ID : 4
Format : UTF-8
Codec ID : S_TEXT/UTF8
Codec ID/Info : UTF-8 Plain Text
Duration : 1 h 41 min
Bit rate : 96 b/s
Count of elements : 1203
Stream size : 72.2 KiB (0%)
Title : TrueTransLate
Language : Russian
Default : No
Forced : No

Text #2
ID : 5
Format : UTF-8
Codec ID : S_TEXT/UTF8
Codec ID/Info : UTF-8 Plain Text
Duration : 1 h 42 min
Bit rate : 55 b/s
Count of elements : 1202
Stream size : 41.5 KiB (0%)
Language : English
Default : No
Forced : No

Menu
00:00:00.000 : en:Chapter 01
00:15:40.520 : en:Chapter 02
00:29:28.400 : en:Chapter 03
00:41:16.560 : en:Chapter 04
00:51:07.080 : en:Chapter 05
01:01:51.960 : en:Chapter 06
01:16:10.960 : en:Chapter 07
01:30:36.400 : en:Chapter 08
01:42:26.280 : en:Chapter 09


 ·  , , FAQ-
:  [ 13--2017 01:54 ]

  

.torrent

.torrent 84 KB


: 16.73 GB
(hash) : 67edcbdc0b2cba2095b4e93536f86a3ffeba7637
:
··
...

Luther . !

!