Скачать через торрент Крученый город Spin City Фильм бесплатно в хорошем качестве torrent

Скачивайте на UnionPeer.org фильмы через торрент без регистрации. Новинки кино в хорошем качестве через торрент. На UnionPeer.org можно скачать через торрент фильмы 2014 и 2015 годов. Самые новые фильмы.

Скачать торрент Крученый город Spin City бесплатно через .torrent фильм мультфильм сериал

Если у вас наблюдаются проблемы со скриншотами, переходом по ссылками, скачиванием торрентов - проблемы в блокировщике рекламы AdBlock. #хорошегоДня!


Статистика раздачи
Размер:  205 MB   |    Зарегистрирован:  5 дней   |    .torrent скачан:  5 раз   |   
Раздают:  1  
   
Загрузка...
 
Автор Сообщение

Galfimbul

avatar Galfimbul


Крученый город / Spin City

Год выпуска: 1999
Страна: США
Жанр: Комедия
Продолжительность: ~ 00:21:00

Перевод: Любительский (многоголосый закадровый) | RusFilm

Режиссёр: Энди Кэдифф, Тед Уасс, Ли Шаллат Чемел

В ролях: Майкл Дж. Фокс, Хизер Локлир, Ричард Кайнд, Майкл Ботмэн, Бэрри Боствик, Алан Рак, Конни Бриттон, Александр Чаплин, Виктория Диллард, Хайди Клум, Майкл Гросс

Описание: У помощника мэра Нью-Йорка Майкла Флаэрти (Майкл Дж.Фокс) - практически нет свободного времени. Да и откуда оно может появится, когда ему приходится круглосуточно вытаскивать мэра из всяческих перепетий и коллизий, пытаясь сохранить не только его имидж, но и имидж всей администрации. Команда у Флаэрти - как на подбор: тормозной копирайтер, озабоченная бухгалтерша, истеричный пресс-секретарь, гей-афроамериканец и амбициозный, но не очень умный помощник с комплексом "Наполеона". С помощью их талантов и собственной изворотливости, команде предстоит решить шквал проблем и выстоять в страшной борьбе с недремлющей прессой. Третий год работы Майка в качестве заместителя мэра Нью-Йорка подкрался незаметно.

Ссылка на предыдущие и альтернативные раздачи: Spin City

Качество: DVDRip
Формат: AVI
Видео: XviD, 560x416, 23.976 fps, ~994 kbps, 0.178 bit/pixel
Аудио: 44.100 kHz, MPEG Layer 3, 2 ch, ~192.71 kbps avg, русский
Аудио 2: 48 kHz, MPEG Layer 3, 2 ch, ~128 kbps avg, английский

Субтитры: Нет

Реклама: Нет
Общее
Полное имя : C:\Users\user\Documents\Spin City.S04E01.RusFilm.avi
Формат : AVI
Формат/Информация : Audio Video Interleave
Размер файла : 205 Мбайт
Продолжительность : 21 м.
Режим общего битрейта : Переменный
Общий поток : 1335 Кбит/сек
Программа кодирования : VirtualDubMod 1.5.10.3 (build 2550/release)
Библиотека кодирования : VirtualDubMod build 2550/release

Видео
Идентификатор : 0
Формат : MPEG-4 Visual
Профиль формата : Advanced Simple@L5
Параметр BVOP формата : 1
Параметр QPel формата : Нет
Параметр GMC формата : Без точки перехода
Параметр матрицы формата : Default (H.263)
Режим смешивания : Сжатый битовый поток
Идентификатор кодека : XVID
Идентификатор кодека/Подсказка : XviD
Продолжительность : 21 м.
Битрейт : 994 Кбит/сек
Ширина : 560 пикселей
Высота : 416 пикселей
Соотношение сторон : 4:3
Частота кадров : 23,976 кадра/сек
Цветовое пространство : YUV
Субдискретизация насыщенности : 4:2:0
Битовая глубина : 8 бит
Тип развёртки : Прогрессивная
Метод сжатия : С потерями
Бит/(Пиксели*Кадры) : 0.178
Размер потока : 152 Мбайт (74%)
Библиотека кодирования : XviD 1.2.1 (UTC 2008-12-04)

Аудио #1
Идентификатор : 1
Формат : MPEG Audio
Версия формата : Version 1
Профиль формата : Layer 3
Режим : Joint stereo
Расширение режима : MS Stereo
Идентификатор кодека : 55
Идентификатор кодека/Подсказка : MP3
Продолжительность : 21 м.
Вид битрейта : Постоянный
Битрейт : 192 Кбит/сек
Каналы : 2 канала
Частота : 44,1 КГц
Метод сжатия : С потерями
Размер потока : 29,4 Мбайт (14%)
Выравнивание : Соединение по промежуткам
Продолжительность промежутка : 42 мс. (1,00 видеокадр)
Время предзагрузки промежутка : 522 мс.

Аудио #2
Идентификатор : 2
Формат : MPEG Audio
Версия формата : Version 1
Профиль формата : Layer 3
Режим : Joint stereo
Расширение режима : MS Stereo
Идентификатор кодека : 55
Идентификатор кодека/Подсказка : MP3
Продолжительность : 21 м.
Вид битрейта : Переменный
Битрейт : 128 Кбит/сек
Каналы : 2 канала
Частота : 48,0 КГц
Метод сжатия : С потерями
Размер потока : 20,2 Мбайт (10%)
Выравнивание : Соединение по промежуткам
Продолжительность промежутка : 24 мс. (0,58 видеокадр)
Время предзагрузки промежутка : 244 мс.
Библиотека кодирования : LAME3.96r
Настройки программы : -m j -V 4 -q 3 -lowpass 17.5 --abr 128
Внимание! Раздача ведётся путём добавления новых серий; при каждом добавлении создаётся новый торрент. Чтобы начать докачку новой серии, пользователям необходимо сделать следующее:
(1) остановить скачивание,
(2) удалить старый торрент у себя из клиента (старые серии удалять не надо),
(3) скачать новый торрент и запустить его у себя в клиенте вместо старого, при этом указать клиенту путь в старую папку куда и должно происходить скачивание новых серий.
Ваш клиент при этом должен произвести хеширование (проверку) старой папки (если не производит сам - помогите ему сделать это), и будет докачивать только те серии которых у вас ещё нет. Старые серии при этом не удаляются, а продолжают раздаваться!
Eсли вы уже удалили старые серии, то предотвратить повторную закачку старых серий можно, отжав галочку в соответствующих местах при запуске нового торрента. По возможности, желательно не удалять старые серии как можно дольше чтобы релизёр не столько продолжал раздавать старые серии, а смог сконцентрироваться на новых.


Трекер:  [ 13-Окт-2017 00:18 ]

  

Скачать .torrent

Размер .torrent файла 16 KB


Размер: 205 MB
Хэш (hash) релиза: ab790cf91dcec1a499c1a3ab8ac4e78776a9caf4
Подписка на обновления:

Торренты, похожие на Крученый город Spin City скачать торрент

Форум Название Автор Размер S L Добавлен
Зарубежные сериалы ·· Крученый город / Spin City / Сезон: 4 / Серии: 1-5 из 26 (Энди Кэдифф, Тед Уасс, Ли Шаллат Чемел) [1999, Комедия, DVDRip] Original + Rus Subs Galfimbul 912716737870 MB 0 0 1445379610

01:20

21-Окт-15

Еще никто не оставлял запись к записи скачать торрент Крученый город Spin City . Будь первым!

!Обратная связь