Скачать через торрент Инуясики Inuyashiki бесплатно Аниме Все серии на русском torrent

Если у вас наблюдаются проблемы со скриншотами, переходом по ссылками, скачиванием торрентов - проблемы в блокировщике рекламы AdBlock. #хорошегоДня!


Статистика раздачи
Размер:  355 MB   |    Зарегистрирован:  9 дней   |    .torrent скачан:  5 раз   |   
Раздают:  1  
   
Загрузка...
 
Автор Сообщение

Galfimbul

avatar Galfimbul


Инуясики
Inuyashiki
Inuyashiki Last Hero
いぬやしき

Страна: Япония
Год выпуска: 2017 г.
Жанр: приключения, фантастика, драма, сэйнэн
Тип: TV
Продолжительность: 11 эп. по 23 мин.
Режиссер: Сато Кэйити
Студия: Русские субтитры
Перевод: LollipopОписание: История о двух совершенно разных людях, волею судьбы оказавшихся связанными друг с другом. Ичиро Инуяшики - 58-летний бизнесмен, но из-за напряжённой жизни и кучи потраченных нервных клеток, он выглядит гораздо старше. Но рак - болезнь без возраста, она не щадит никого. Поэтому, когда Ичиро узнал, что болен, он впал в депрессию. Уже перестав бороться, он решил доживать остаток своих дней, но внезапно оказался свидетелем крушения НЛО, и это событие внезапно подарило ему новую жизнь. Ичиро переродился в механическом теле и получил сверхспособности. После этого чуда, Ичиро решил посвятить свою жизнь помощи людям.

Есть и другой человек, полная противоположность Ичиро. Зовут его Хиро Шишигами. Он молод и полон сил, учится в старшей школе. Без ума любит свою маму и лучшего друга, но к остальным людям не испытывает совершенно никакого сочувствия. Как и Ичиро, Хиро видит НЛО и тоже получает механическое тело. Но, в отличие от бизнесмена, школьник решает потратить свои способности на преступления, видя боль других людей, он чувствует себя живым. Что же победит: добро или зло?Информационные ссылки: AniDB | MyAnimeList | World ArtКачество: HDTVRip
Тип релиза: Без хардсаба
Формат видео: MP4
Наличие линковки: Нет
Релиз/Автор рипа: Ohys-Raws
Видео: x264, 8 bit, 1280x720, ~1938 Kbps, 23.976 fps
Аудио (int): JAP, AAC, 48000 Hz, ~215 Kbps, 2 ch
Субтитры (ext): RUS, ASS
<div class="sp-wrap">
<div class="sp-head folded">MediaInfo</div>
<div class="sp-body">

Формат : MPEG-4Профиль формата : Base MediaИдентификатор кодека : isom (isom/avc1)Размер файла : 355 МбайтПродолжительность : 23 м. 0 с.Режим общего битрейта : ПеременныйОбщий поток : 2157 Кбит/секДата кодирования : UTC 2017-10-12 17:11:17Дата пометки : UTC 2017-10-12 17:11:17

ВидеоИдентификатор : 1Формат : AVCФормат/Информация : Advanced Video CodecПрофиль формата : Main@L4.1Параметр CABAC формата : ДаПараметр ReFrames формата : 4 кадраИдентификатор кодека : avc1Идентификатор кодека/Информация : Advanced Video CodingПродолжительность : 23 м. 0 с.Битрейт : 1938 Кбит/секМаксимальный битрейт : 12,5 Мбит/секШирина : 1280 пикселейВысота : 720 пикселейСоотношение сторон : 16:9Режим частоты кадров : ПостоянныйЧастота кадров : 23,976 (24000/1001) кадра/секЦветовое пространство : YUVСубдискретизация насыщенности : 4:2:0Битовая глубина : 8 битТип развёртки : ПрогрессивнаяБит/(Пиксели*Кадры) : 0.088Размер потока : 319 Мбайт (90%)Библиотека кодирования : x264 core 152 r2851+58 429492e t_mod_Custom [8-bit@all X86_64]Настройки программы : cabac=1 / ref=3 / deblock=1:0:0 / analyse=0x1:0x111 / me=hex / subme=7 / psy=1 / fade_compensate=0.00 / psy_rd=1.00:0.00 / mixed_ref=1 / me_range=16 / chroma_me=1 / trellis=1 / 8x8dct=0 / cqm=0 / deadzone=21,11 / fast_pskip=1 / chroma_qp_offset=-2 / threads=18 / lookahead_threads=3 / sliced_threads=0 / nr=0 / decimate=1 / interlaced=0 / bluray_compat=0 / constrained_intra=0 / fgo=0 / bframes=3 / b_pyramid=2 / b_adapt=1 / b_bias=0 / direct=1 / weightb=1 / open_gop=0 / weightp=2 / keyint=240 / keyint_min=1 / scenecut=40 / intra_refresh=0 / rc_lookahead=40 / rc=crf / mbtree=1 / crf=20.0000 / qcomp=0.60 / qpmin=0:0:0 / qpmax=69:69:69 / qpstep=4 / ip_ratio=1.40 / aq=1:1.50 / aq-sensitivity=10.00 / aq-factor=1.00:1.00:1.00 / aq2=0 / aq3=0Дата кодирования : UTC 2017-10-12 17:11:17Дата пометки : UTC 2017-10-12 17:11:20Цветовой диапазон : LimitedОсновные цвета : BT.709Характеристики трансфера : BT.709Коэффициенты матрицы : BT.709

АудиоИдентификатор : 2Формат : AACФормат/Информация : Advanced Audio CodecПрофиль формата : LCИдентификатор кодека : 40Продолжительность : 23 м. 0 с.Вид битрейта : ПеременныйБитрейт : 215 Кбит/секМаксимальный битрейт : 265 Кбит/секКаналы : 2 каналаРасположение каналов : Front: L RЧастота : 48,0 КГцЧастота кадров : 46,875 кадров/сек (1024 spf)Метод сжатия : С потерямиРазмер потока : 35,4 Мбайт (10%)Язык : JapaneseДата кодирования : UTC 2017-10-12 17:03:11Дата пометки : UTC 2017-10-12 17:11:20
</div>
</div>
01. Ichiro Inuyashiki
02.


Трекер:  [ 13-Окт-2017 00:01 ]

  

Скачать .torrent

Размер .torrent файла 926 B


Размер: 355 MB
Хэш (hash) релиза: d6b03935079fc6c82e2383804d57e1a9c53e195f
Подписка на обновления:

Еще никто не оставлял запись к записи скачать торрент Инуясики Inuyashiki . Будь первым!

!Обратная связь