Скачать через торрент История призрака A Ghost Story Фильм бесплатно в хорошем качестве torrent

Скачивайте на UnionPeer.org фильмы через торрент без регистрации. Новинки кино в хорошем качестве через торрент. На UnionPeer.org можно скачать через торрент фильмы 2014 и 2015 годов. Самые новые фильмы.

Скачать торрент История призрака A Ghost Story бесплатно через .torrent фильм мультфильм сериал

Если у вас наблюдаются проблемы со скриншотами, переходом по ссылками, скачиванием торрентов - проблемы в блокировщике рекламы AdBlock. #хорошегоДня!


Статистика раздачи
Размер:  2.73 GB   |    Зарегистрирован:  8 дней   |    .torrent скачан:  94 раза   |   
Раздают:  7  
   
Загрузка...
 
Автор Сообщение

Galfimbul

avatar Galfimbul


Наименование: История призрака
Оригинальное наименование: A Ghost Story
Произведено: США
Категория: фэнтези, драма, мелодрама
Режиссер постановщик: Дэвид Лоури
В главных ролях: Кейси Аффлек, Руни Мара, МакКольм Сепас мл., Кеннейша Томпсон, Гроувер Колсон, Лизбет Карденас, Барлоу Джейкобс, Дэггер Салазар, Соня Асеведо

О фильме:
История о безвременно умершем мужчине, который не ушел в мир иной, а остался привязан к своему бывшему дому до скончания веков.



Файл
Качество: BDRip 720p
Видео данные: MKV, 960x720 (4:3), 23.976 fps, 4000 Кбит/с
Аудио данные: Русский (AC3, 2 ch, 384 Кбит/с)
Перевод: Любительский многоголосый (GreenРай Studio)
Продолжительность: 01:32:37
General
Unique ID : 214916828520198767396464499567247749531 (0xA1AF79BE4C7C06559E05B1F2EE2FF19B)
Complete name : D:Рабочий столA.Ghost.Story.2017.P.BDRip.720p.mkv
Format : Matroska
Format version : Version 4 / Version 2
File size : 2.73 GiB
Duration : 1 h 32 min
Overall bit rate mode : Constant
Overall bit rate : 4 219 kb/s
Encoded date : UTC 2017-10-11 20:40:34
Writing application : mkvmerge v8.3.0 ('Over the Horizon') 64bit
Writing library : libebml v1.3.1 + libmatroska v1.4.2

Video
ID : 1
Format : AVC
Format/Info : Advanced Video Codec
Format profile : Main@L3.1
Format settings, CABAC : Yes
Format settings, ReFrames : 3 frames
Codec ID : V_MPEG4/ISO/AVC
Duration : 1 h 32 min
Bit rate mode : Constant
Bit rate : 4 000 kb/s
Width : 960 pixels
Height : 720 pixels
Display aspect ratio : 4:3
Frame rate mode : Constant
Frame rate : 23.976 (24000/1001) FPS
Standard : NTSC
Color space : YUV
Chroma subsampling : 4:2:0
Bit depth : 8 bits
Scan type : Progressive
Bits/(Pixel*Frame) : 0.241
Stream size : 2.48 GiB (91%)
Language : English
Default : Yes
Forced : No
Color range : Limited

Audio
ID : 2
Format : AC-3
Format/Info : Audio Coding 3
Mode extension : CM (complete main)
Format settings, Endianness : Big
Codec ID : A_AC3
Duration : 1 h 32 min
Bit rate mode : Constant
Bit rate : 384 kb/s
Channel(s) : 2 channels
Channel positions : Front: L R
Sampling rate : 48.0 kHz
Frame rate : 31.250 FPS (1536 spf)
Compression mode : Lossy
Stream size : 255 MiB (9%)
Default : Yes
Forced : No
ВНИМАНИЕ! Присутствует реклама! Релиз от:
Источник http://arutor.org

Трекер:  [ 12-Окт-2017 22:50 ]

  

Скачать .torrent

Размер .torrent файла 14 KB


Размер: 2.73 GB
Хэш (hash) релиза: 42b74128736c95ed31c2d0182b1989efc97a9dbc
Подписка на обновления:

Торренты, похожие на История призрака A Ghost Story скачать торрент

Форум Название Автор Размер S L Добавлен
Зарубежные фильмы 2016-2017 (Новинки зарубежного кино) ·· История призрака / A Ghost Story (Дэвид Лоури / David Lowery) [2017, США, Фэнтези, драма, мелодрама, HDRip] VO (BadBajo) Galfimbul 15644733441.46 GB 0 0 1505921415

18:30

20-Сен-17

Зарубежные фильмы 2016-2017 (Новинки зарубежного кино) ·· История призрака / A Ghost Story (Дэвид Лоури) [2016 г., фэнтези, драма, мелодрама, BDRip 1080p] MVO | Синема УС Galfimbul 75274844547.01 GB 2 0 1505913002

16:10

20-Сен-17

Зарубежные фильмы 2016-2017 (Новинки зарубежного кино) ·· История призрака / A Ghost Story (Дэвид Лоури) [2016 г., фэнтези, драма, мелодрама, HDRip] MVO | Синема УС Galfimbul 14680739841.37 GB 0 0 1505913001

16:10

20-Сен-17

Зарубежные фильмы до 2016 ·· Китайская сказка о призраках / Китайская история призраков / A Chinese Ghost Story / A Chinese Fairy Tale / Sien nui yau wan (Уилсон Ип / Wilson Yip) [2011, Китай, Гонконг, фэнтези, BDRip 720p] VO Lisitz + DVO GREEN TEA + Original + Sub (Rus, Eng) L 70184722616.54 GB 0 0 1330262940

16:29

26-Фев-12

Еще никто не оставлял запись к записи скачать торрент История призрака A Ghost Story . Будь первым!

!Обратная связь