Скачать через торрент Культ Чаки Cult of Chucky Фильм бесплатно в хорошем качестве torrent

Скачивайте на UnionPeer.org фильмы через торрент без регистрации. Новинки кино в хорошем качестве через торрент. На UnionPeer.org можно скачать через торрент фильмы 2014 и 2015 годов. Самые новые фильмы.

Скачать торрент Культ Чаки Cult of Chucky бесплатно через .torrent фильм мультфильм сериал

Если у вас наблюдаются проблемы со скриншотами, переходом по ссылками, скачиванием торрентов - проблемы в блокировщике рекламы AdBlock. #хорошегоДня!


Статистика раздачи
Размер:  1.42 GB   |    Зарегистрирован:  8 дней   |    .torrent скачан:  37 раз   |   
Раздают:  2  
   
Загрузка...
 
Автор Сообщение

Galfimbul

avatar Galfimbul


Культ Чаки / Cult of Chucky «Friends till the end, remember?»
Страна: США
Жанр: ужасы, триллер
Год выпуска: 2017
Продолжительность: 01:30:56Перевод: Любительский (многоголосый закадровый) ViruseProject
Субтитры: нет
Оригинальная аудиодорожка: английскаяРежиссер: Дон Манчини / Don ManciniВ ролях: Дженнифер Тилли, Фиона Дуриф, Брэд Дуриф, Алекс Винсент, Майкл Терриоль, Элизабет Розен, Зак Сантьяго, Грэйс Линн Кунг, Али Татарин, Саммер Х. ХауэллОписание: Ника Пирс 4 года провела в лечебнице. Ее убеждают в том, что она виновна в гибели семьи, а не кукла Чаки. Когда лечащий врач предлагает новый вариант терапии с куклой с добрым лицом, в лечебнице начинают погибать люди, и Ника начинает думать, что ее кошмары реальны. Энди Барклай повзрослел и спешит на помощь, но ему хочет помешать Тиффани — невеста Чаки, готовая на все, чтобы помочь возлюбленному. Качество видео: BDRip-AVC / Cult.of.Chucky.2017.REMUX.UNRATED.1080p.BluRay.AVC.DTS-HD.MA.5.1-iFT
Формат видео: MKVВидео: MPEG-4 AVC, 1024x576 (16:9), 23.976 fps, ~1843 kbps avg, 0.130 bit/pixel
Аудио 1: 48 kHz, AC3 Dolby Digital, 2/0 (L,R) ch, ~192 kbps avg
Аудио 2: 48 kHz, AC3 Dolby Digital, 2/0 (L,R) ch, ~192 kbps avg
Complete name : D:\Раздачи\Культ Чаки (2017) BDRip-AVC_ivanes20031987.mkvFormat : MatroskaFormat version : Version 2File size : 1.42 GiBDuration : 1 h 30 minOverall bit rate : 2 228 kb/sEncoded date : UTC 2017-10-06 14:29:17Writing application : mkvmerge v4.4.0 ('Die Wiederkehr') сборка от Jan 3 2011 21:40:45Writing library : libebml v1.0.0 + libmatroska v1.0.0

VideoID : 1Format : AVCFormat/Info : Advanced Video CodecFormat profile : High@L4.1Format settings, CABAC : YesFormat settings, RefFrames : 13 framesCodec ID : V_MPEG4/ISO/AVCDuration : 1 h 30 minBit rate : 1 843 kb/sWidth : 1 024 pixelsHeight : 576 pixelsDisplay aspect ratio : 16:9Frame rate mode : ConstantFrame rate : 23.976 (24000/1001) FPSColor space : YUVChroma subsampling : 4:2:0Bit depth : 8 bitsScan type : ProgressiveBits/(Pixel*Frame) : 0.130Stream size : 1.14 GiB (81%)Writing library : x264 core 152 r2851kMod ba24899Encoding settings : cabac=1 / ref=13 / deblock=1:-2:-2 / analyse=0x3:0x113 / me=umh / subme=10 / psy=1 / fade_compensate=0.00 / psy_rd=1.00:0.00 / mixed_ref=1 / me_range=32 / chroma_me=1 / trellis=2 / 8x8dct=1 / cqm=0 / deadzone=21,11 / fast_pskip=0 / chroma_qp_offset=-2 / threads=18 / lookahead_threads=4 / sliced_threads=0 / nr=0 / decimate=0 / interlaced=0 / bluray_compat=0 / constrained_intra=0 / bframes=12 / b_pyramid=2 / b_adapt=2 / b_bias=0 / direct=1 / weightb=1 / open_gop=0 / weightp=2 / keyint=240 / keyint_min=23 / scenecut=40 / intra_refresh=0 / rc_lookahead=60 / rc=2pass / mbtree=0 / bitrate=1843 / ratetol=1.0 / qcomp=0.60 / qpmin=0 / qpmax=69 / qpstep=4 / cplxblur=20.0 / qblur=0.5 / vbv_maxrate=50000 / vbv_bufsize=62500 / nal_hrd=none / filler=0 / ip_ratio=1.40 / pb_ratio=1.30 / aq=1:1.00Default : YesForced : No

Audio #1ID : 2Format : AC-3Format/Info : Audio Coding 3Format settings, Endianness : BigCodec ID : A_AC3Duration : 1 h 30 minBit rate mode : ConstantBit rate : 192 kb/sChannel(s) : 2 channelsChannel positions : Front: L RSampling rate : 48.0 kHzFrame rate : 31.250 FPS (1536 SPF)Bit depth : 16 bitsCompression mode : LossyStream size : 125 MiB (9%)Title : ViruseProjectLanguage : RussianService kind : Complete MainDefault : YesForced : No

Audio #2ID : 3Format : AC-3Format/Info : Audio Coding 3Format settings, Endianness : BigCodec ID : A_AC3Duration : 1 h 30 minBit rate mode : ConstantBit rate : 192 kb/sChannel(s) : 2 channelsChannel positions : Front: L RSampling rate : 48.0 kHzFrame rate : 31.250 FPS (1536 SPF)Bit depth : 16 bitsCompression mode : LossyStream size : 125 MiB (9%)Title : OriginalLanguage : EnglishService kind : Complete MainDefault : NoForced : No


Трекер:  [ 12-Окт-2017 22:01 ]

  

Скачать .torrent

Размер .torrent файла 14 KB


Размер: 1.42 GB
Хэш (hash) релиза: ade339c2021fc3597e809d22db91e833d4e31345
Подписка на обновления:

Торренты, похожие на Культ Чаки Cult of Chucky скачать торрент

Форум Название Автор Размер S L Добавлен
Зарубежные фильмы 2016-2017 (Новинки зарубежного кино) ·· Культ Чаки / Cult of Chucky (Дон Манчини / Don Mancini) [2017, США, ужасы, триллер, HDRip] MVO (ViruseProject) Galfimbul 781592908745 MB 0 0 1507350624

07:30

7-Окт-17

Зарубежные фильмы 2016-2017 (Новинки зарубежного кино) ·· Культ Чаки / Cult of Chucky (Дон Манчини / Don Mancini) [2017, США, Ужасы, триллер, HDRip] ViruseProject Galfimbul 15706890241.46 GB 2 0 1507277428

11:10

6-Окт-17

Зарубежные фильмы 2016-2017 (Новинки зарубежного кино) ·· Культ Чаки / Cult of Chucky (Дон Манчини / Don Mancini) [2017, США, Ужасы, триллер, BDRip 720p] ViruseProject Galfimbul 49993589014.66 GB 2 0 1507277413

11:10

6-Окт-17

Зарубежные фильмы 2016-2017 (Новинки зарубежного кино) ·· Культ Чаки / Cult of Chucky (Дон Манчини / Don Mancini) [2017, США, Ужасы, триллер, BDRip] [Расширенная версия / Unrated Cut] MVO + Original (Eng) Galfimbul 15671971841.46 GB 3 26 1507224630

20:30

5-Окт-17

Зарубежные фильмы 2016-2017 (Новинки зарубежного кино) ·· Культ Чаки / Cult of Chucky (Дон Манчини) [2017, ужасы, BDRip 720p] Galfimbul 41007280863.82 GB 0 0 1506456023

23:00

26-Сен-17

Зарубежные фильмы 2016-2017 (Новинки зарубежного кино) ·· Культ Чаки / Cult of Chucky (Дон Манчини) [2017, ужасы, DVDRip] Galfimbul 13203845121.23 GB 3 0 1506292246

01:30

25-Сен-17

Еще никто не оставлял запись к записи скачать торрент Культ Чаки Cult of Chucky . Будь первым!

!Обратная связь