Скачать через торрент Джульетта и духи Giulietta degli spiriti Фильм бесплатно в хорошем качестве torrent

Скачивайте на UnionPeer.org фильмы через торрент без регистрации. Новинки кино в хорошем качестве через торрент. На UnionPeer.org можно скачать через торрент фильмы 2014 и 2015 годов. Самые новые фильмы.

Скачать торрент Джульетта и духи Giulietta degli spiriti бесплатно через .torrent фильм мультфильм сериал

Если у вас наблюдаются проблемы со скриншотами, переходом по ссылками, скачиванием торрентов - проблемы в блокировщике рекламы AdBlock. #хорошегоДня!


Статистика раздачи
Размер:  7.96 GB   |    Зарегистрирован:  8 дней   |    .torrent скачан:  6 раз   |   
Раздают:  2  
   
Загрузка...
 
Автор Сообщение

Galfimbul

avatar Galfimbul


Джульетта и духи / Giulietta degli spiriti / Juliet of the Spirits / Criterion Collection#149 «Fellini's Masterpiece !»
Страна:Италия, Франция
Студия:Francoriz Production, Rizzoli Film S.p.a..
Жанр:Фэнтези, Драма, Комедия
Год выпуска:1965
Продолжительность:02:17:58
Производитель:The Criterion Collection#149
Перевод:Профессиональный (двухголосый, закадровый) Film Prestige
Субтитры:Английские, Русские
Оригинальная аудиодорожка:Итальянский
Премьера (мир):16.10.1965
Режиссер:Федерико Феллини / Federico Fellini
В ролях:Джульетта Мазина — Джульетта
Марио Пизу — Джорджо
Сандра Мило — Сузи / Ирис / Фанни
Валентина Кортезе — Валентина
Луиза Делла Ноче — Адель
Сильва Кошина — Сильва
Катерина Боратто — мать Джульетты
Хосе Луис де Виллалонга — друг Джорджо
Фридрих фон Ледебур — медиум
Альба Кансельери — Джульетта в детстве
Лу Гилберт — дедушка
Валеска Герт — Пийма
Милена Вукотич — Елизавета, горничная
Описание:Первая цветная картина Федерико Феллини (1920-1993), эталон буйной фантазии великого кудесника. Кто-то считает этот фильм "женской версией" "Восьми с половиной", кто-то — сюрреалистическим отражением собственных фантазии, маний и комплексов режиссера. Так или иначе, Феллини приглашает нас в экстравагантное путешествие в глубины женского сознания, наполненного страхами и подавленными желаниями, эротическими фантазиями и невинными воспоминаниями детства.

[b]Доп. информация
:Исходник найден в сети. Dvo Film Prestige и русские субтитры взяты из раздачиdancemaster-...171116.Удален трейлер.Огромное Спасибо Всем, без чьей помощи этот релиз не состоялся бы!Сценарий:Федерико Феллини, Туллио Пинелли, Эннио Флайяно Продюсер:Генри Дойчмайстер, Клементе Фракасси, Анджело Риццоли
Оператор:Джанни Ди ВенанцоКомпозитор:Нино РотаХудожник:Джантито Буркьелларо, Лучиано Риччери, Е. Бенацци ТальеттиМонтаж:Руджеро Мастроянни
Федерико Феллини-https://ru.wikipedia.org/wiki/Феллини,_Федерико
Фильм
-https://ru.wikipedia.org/wiki/Джульетта_и_духи
PgcDemux 1.2.0.5 -> разделение компонентов диска на файлы.
BeHappy, BeLight - AC3 -> Wav.Sound Forge pro 10 -> синхронизация звука.
Subtitle Workshop, MaestroSBT, SubtitleCreator, DVD SubEdit (субтитры).
DVD Lab -> мультиплексирование и авторинг.
DVDRemake Pro 3.6.4 -> реавторинг DVD.
DVD Shrink 3.2 -> Сэмпл. Точка перехода.
Без перевода)">--New digital transfer, enhanced for 16×9 televisions
--Familiar Spirits, a 19-minute interview with Fellini by Ian Dallas
--New and improved English subtitle translation
--Optimal image quality: RSDL dual-layer edition
Меню:Английский, анимированное, озвученное. Тип релиза:DVD9 (Custom)
Контейнер:DVD-Video
Видео:NTSC 16:9 (720x480) VBR, Auto Letterboxed, 6965 Кбит/сек, 23,976 (24000/1001) кадра/сек Аудио 1:Русский:AC3, 2 ch, 48.0 KHz, 192 Кбит/сек / Профессиональный (двухголосый, закадровый) Film PrestigeАудио 2:Итальянский:AC3, 1 ch, 48.0 KHz, 192 Кбит/сек / ОригиналФормат субтитров:prerendered (DVD/IDX+SUB)
Title: Juliet of the Spirits DVD-9_Custom_Criterion#149
Size: 7.96 Gb ( 8 342 112,00 KBytes ) - DVD-9
Enabled regions: 1, 2, 3, 4, 5, 6, 7, 8

VTS_02 :
Play Length: 02:17:58
Video: NTSC 16:9 (720x480) VBR, Auto Letterboxed
Audio:
Russian (Dolby AC3, 2 ch)
Italiano (Dolby AC3, 1 ch)
Subtitles:
English
Russian

VTS_03 :
Play Length: 00:00:00
Video: NTSC 16:9 (720x480) VBR, Auto Letterboxed
Audio:
English (Dolby AC3, 1 ch)

VTS_04 :
Play Length: 00:00:20
Video: NTSC 4:3 (720x480) VBR

VTS_05 :
Play Length: 00:21:29
Video: NTSC 4:3 (720x480) VBR
Audio:
English (Dolby AC3, 1 ch)
[b]Общее
Полное имя : F:\Juliet of the Spirits DVD-9_Custom_Criterion#149\VIDEO_TS\VTS_02_2.VOB
Формат : MPEG-PS
Размер файла : 1024 Мбайт
Продолжительность : 19 м. 5 с.
Режим общего битрейта : Переменный
Общий поток : 7498 Кбит/сек

Аудио #1
Идентификатор : 189 (0xBD)-128 (0x80)
Формат : AC-3
Формат/Информация : Audio Coding 3
Расширение режима : CM (complete main)
Параметр Endianness формата : Big
Режим смешивания : DVD-Video
Продолжительность : 19 м. 5 с.
Вид битрейта : Постоянный
Битрейт : 192 Кбит/сек
Каналы : 2 канала
Расположение каналов : Front: L R
Частота : 48,0 КГц
Частота кадров : 31,250 кадров/сек (1536 spf)
Метод сжатия : С потерями
Задержка видео : -498 мс.
Размер потока : 26,2 Мбайт (3%)

Аудио #2
Идентификатор : 189 (0xBD)-129 (0x81)
Формат : AC-3
Формат/Информация : Audio Coding 3
Расширение режима : CM (complete main)
Параметр Endianness формата : Big
Режим смешивания : DVD-Video
Продолжительность : 19 м. 5 с.
Вид битрейта : Постоянный
Битрейт : 192 Кбит/сек
Каналы : 1 канал
Расположение каналов : Front: C
Частота : 48,0 КГц
Частота кадров : 31,250 кадров/сек (1536 spf)
Метод сжатия : С потерями
Задержка видео : -498 мс.
Размер потока : 26,2 Мбайт (3%)

Текст #1
Идентификатор : 189 (0xBD)-32 (0x20)
Формат : RLE
Формат/Информация : Run-length encoding
Режим смешивания : DVD-Video
Продолжительность : 18 м. 58 с.
Задержка видео : 4 с. 70 мс.

Текст #2
Идентификатор : 189 (0xBD)-33 (0x21)
Формат : RLE
Формат/Информация : Run-length encoding
Режим смешивания : DVD-Video
Продолжительность : 18 м. 58 с.
Задержка видео : 4 с. 70 мс.

Текст #3
Идентификатор : 189 (0xBD)-34 (0x22)
Формат : RLE
Формат/Информация : Run-length encoding
Режим смешивания : DVD-Video
Продолжительность : 18 м. 58 с.
Задержка видео : 4 с. 304 мс.
<div class="sp-wrap">
<div class="sp-head folded">Полиграфия</div>
<div class="sp-body">







</div>
</div>
[b]Релиз: Уважаемые пользователи!Найдите пару минут поблагодарить релизера и высказаться в топике раздачи.Ваше мнение - бальзам для раздающего и пища для ума остальным пользователям.Мои раздачи

Трекер:  [ 12-Окт-2017 18:36 ]

  

Скачать .torrent

Размер .torrent файла 41 KB


Размер: 7.96 GB
Хэш (hash) релиза: 9e02213f18f7fc618aa1c26583e3815684c83905
Подписка на обновления:

Еще никто не оставлял запись к записи скачать торрент Джульетта и духи Giulietta degli spiriti . Будь первым!

!Обратная связь