Скачать через торрент Дневник слабака 4: Долгое путешествие Diary of a Wimpy Kid: The Long Haul Фильм бесплатно в хорошем качестве torrent

Скачивайте на UnionPeer.org фильмы через торрент без регистрации. Новинки кино в хорошем качестве через торрент. На UnionPeer.org можно скачать через торрент фильмы 2014 и 2015 годов. Самые новые фильмы.

Скачать торрент Дневник слабака 4: Долгое путешествие Diary of a Wimpy Kid: The Long Haul бесплатно через .torrent фильм мультфильм сериал

Если у вас наблюдаются проблемы со скриншотами, переходом по ссылками, скачиванием торрентов - проблемы в блокировщике рекламы AdBlock. #хорошегоДня!


Статистика раздачи
Размер:  1.46 GB   |    Зарегистрирован:  1 месяц 29 дней   |    .torrent скачан:  27 раз   |   
Раздают:  1  
   
Загрузка...
 
Автор Сообщение

Galfimbul

avatar Galfimbul


Дневник слабака 4: Долгое путешествие / Diary of a Wimpy Kid: The Long Haul

Страна: США
Жанр: комедия, семейный
Год выпуска: 2017
Продолжительность: 01:31:22Перевод: Профессиональный (многоголосый, закадровый)
Субтитры: нет
Оригинальная аудиодорожка: нетРежиссер: Дэвид Бауэрс / David BowersВ ролях: Алисия Сильверстоун, Том Эверетт Скотт, Чарли Райт, Джейсон Йен Дракер, Алекса Блэр Робертсон, Оуэн Асталош, Элизабет Кинер, Кортни Лорен Каммингс, Джошуа Хувер, Эмма ВетцелОписание: Новая, четвёртая по счёту часть приключений школьника Грега Хеффли, который, несмотря на свой незаурядный ум и амбициозность, никак не может поймать удачу за хвост. Главного героя продолжают преследовать неприятности, от которых он никак не может отделаться. Он попадает в истории не только в родной школе, но и на отдыхе. Однажды Грег принимает решение уговорить свою семью съездить на юбилей бабушки, которая совсем скоро должна отпраздновать свой 90-й день рождения. Парень собирается совместить приятное с полезным и попасть на ежегодную встречу лучших геймеров города.Тип релиза: BDRip | Blu-ray disc 1080p] [EUR]
Контейнер: AVI

Видео: 720x304 (2.37:1), 23.976 fps, XviD build 73 ~1888 kbps avg, 0.36 bit/pixel
Аудио: 48 kHz, AC3 Dolby Digital, 3/2 (L,C,R,l,r) + LFE ch, ~384 kbpsСэмпл
Format                      : AVI
Format/Info                 : Audio Video Interleave
File size                   : 1.46 GiB
Duration                    : 1 h 31 min
Overall bit rate            : 2 282 kb/s
Writing application         : VirtualDubMod 1.5.10.3 | www.virtualdub-fr.org || (build 2550/release)
Writing library             : VirtualDubMod build 2550/release

Video
ID                          : 0
Format                      : MPEG-4 Visual
Format profile              : Advanced Simple@L5
Format settings             : BVOP1 / Custom Matrix
Format settings, BVOP       : 1
Format settings, QPel       : No
Format settings, GMC        : No warppoints
Format settings, Matrix     : Custom
Codec ID                    : XVID
Codec ID/Hint               : XviD
Duration                    : 1 h 31 min
Bit rate                    : 1 888 kb/s
Width                       : 720 pixels
Height                      : 304 pixels
Display aspect ratio        : 2.35:1
Frame rate                  : 23.976 (24000/1001) FPS
Color space                 : YUV
Chroma subsampling          : 4:2:0
Bit depth                   : 8 bits
Scan type                   : Progressive
Compression mode            : Lossy
Bits/(Pixel*Frame)          : 0.360
Stream size                 : 1.21 GiB (83%)
Writing library             : XviD 73

Audio
ID                          : 1
Format                      : AC-3
Format/Info                 : Audio Coding 3
Format settings, Endianness : Big
Codec ID                    : 2000
Duration                    : 1 h 31 min
Bit rate mode               : Constant
Bit rate                    : 384 kb/s
Channel(s)                  : 6 channels
Channel positions           : Front: L C R, Side: L R, LFE
Sampling rate               : 48.0 kHz
Frame rate                  : 31.250 FPS (1536 SPF)
Bit depth                   : 16 bits
Compression mode            : Lossy
Stream size                 : 251 MiB (17%)
Alignment                   : Split accross interleaves
Interleave, duration        : 42  ms (1.00 video frame)
Interleave, preload duratio : 500  ms
Service kind                : Complete Main


Трекер:  [ 12-Окт-2017 17:01 ]

  

Скачать .torrent

Размер .torrent файла 15 KB


Размер: 1.46 GB
Хэш (hash) релиза: 322e1eb4ca6c8b2f5b7270c25556901fc09582c2
Подписка на обновления:

Торренты, похожие на Дневник слабака 4: Долгое путешествие Diary of a Wimpy Kid: The Long Haul скачать торрент

Форум Название Автор Размер S L Добавлен
Зарубежные фильмы 2016-2017 (Новинки зарубежного кино) ·· Дневник слабака 4: Долгое путешествие / Diary of a Wimpy Kid: The Long Haul (Дэвид Бауэрс) [2017, комедия, семейный, HDRip] MVO [Лицензия] Galfimbul 14680309761.37 GB 2 0 1507715602

12:53

11-Окт-17

Еще никто не оставлял запись к записи скачать торрент Дневник слабака 4: Долгое путешествие Diary of a Wimpy Kid: The Long Haul . Будь первым!

!Обратная связь