Скачать через торрент Команда мечты La Dream Team Фильм бесплатно в хорошем качестве torrent

Скачивайте на UnionPeer.org фильмы через торрент без регистрации. Новинки кино в хорошем качестве через торрент. На UnionPeer.org можно скачать через торрент фильмы 2014 и 2015 годов. Самые новые фильмы.

Скачать торрент Команда мечты La Dream Team бесплатно через .torrent фильм мультфильм сериал

Если у вас наблюдаются проблемы со скриншотами, переходом по ссылками, скачиванием торрентов - проблемы в блокировщике рекламы AdBlock. #хорошегоДня!


Статистика раздачи
Размер:  743 MB   |    Зарегистрирован:  6 дней   |    .torrent скачан:  21 раз   |   
Раздают:  1  
   
Загрузка...
 
Автор Сообщение

Galfimbul

avatar Galfimbul


Команда мечты / La Dream Team

Страна: Франция
Жанр: комедия
Год выпуска: 2016
Продолжительность: 01:36:56Перевод: Профессиональный (многоголосый закадровый)
Субтитры: нет
Оригинальная аудиодорожка: нетРежиссер: Тома Соррио / Thomas SorriauxВ ролях: Меди Садун, Жерар Депардье, Шанталь Лоби, Барбара Кабрита, Патрик Тимси, Винсент Бауэн, Тео Фернандез, Винсент Н’ДиайеОписание: Максим Белло является одним из самых известных и высокооплачиваемых французских футболистов. У него много денег и масса поклонников. Но герой настолько же заносчив и самоуверен, насколько талантлив. На футбольном поле он настоящий профессионал, поражающий публику своим мастерством, но вне его он постоянно попадает в неприятности из-за своего непростого характера. Очередной инцидент вне поля становится для Максима настоящей трагедией – он по собственной глупости получает серьёзную травму ноги. Его карьера оказывается под угрозой, начинают ходить слухи, что он больше не сможет выйти на футбольное поле, и люди постепенно забывают о нём. Чтобы исправить пошатнувшуюся репутацию и перезапустить карьеру, агент предлагает ему отправиться в родную деревню, где до сих пор живёт его отец.Качество видео: HDRip | Спасибо flaSI-I <img class="smile" src="//static.t-ru.org/smiles/icon_wink.gif" alt="">
Формат видео: AVI

Видео: 688x288 (2.39:1), 24.000 fps, XviD build 73 ~934 kbps avg, 0.20 bit/pixel
Аудио: 48 kHz, MPEG Layer 3, 2 ch, ~128.00 kbps avgСкачать сэмпл
Format                      : AVI
Format/Info                 : Audio Video Interleave
File size                   : 743 MiB
Duration                    : 1 h 36 min
Overall bit rate            : 1 072 kb/s
Writing application         : VirtualDubMod 1.5.10.3 | www.virtualdub-fr.org || (build 2550/release)
Writing library             : VirtualDubMod build 2550/release

Video
ID                          : 0
Format                      : MPEG-4 Visual
Format profile              : Advanced Simple@L5
Format settings             : BVOP1
Format settings, BVOP       : 1
Format settings, QPel       : No
Format settings, GMC        : No warppoints
Format settings, Matrix     : Default (H.263)
Codec ID                    : XVID
Codec ID/Hint               : XviD
Duration                    : 1 h 36 min
Bit rate                    : 935 kb/s
Width                       : 688 pixels
Height                      : 288 pixels
Display aspect ratio        : 2.40:1
Frame rate                  : 24.000 FPS
Color space                 : YUV
Chroma subsampling          : 4:2:0
Bit depth                   : 8 bits
Scan type                   : Progressive
Compression mode            : Lossy
Bits/(Pixel*Frame)          : 0.197
Stream size                 : 648 MiB (87%)
Writing library             : XviD 73

Audio
ID                          : 1
Format                      : MPEG Audio
Format version              : Version 1
Format profile              : Layer 3
Codec ID                    : 55
Codec ID/Hint               : MP3
Duration                    : 1 h 36 min
Bit rate mode               : Constant
Bit rate                    : 128 kb/s
Channel(s)                  : 2 channels
Sampling rate               : 48.0 kHz
Compression mode            : Lossy
Stream size                 : 88.8 MiB (12%)
Alignment                   : Aligned on interleaves
Interleave, duration        : 42  ms (1.00 video frame)
Interleave, preload duratio : 504  ms
Writing library             : LAME3.99r
Encoding settings           : -m s -V 4 -q 2 -lowpass 17 -b 128


Трекер:  [ 12-Окт-2017 16:30 ]

  

Скачать .torrent

Размер .torrent файла 15 KB


Размер: 743 MB
Хэш (hash) релиза: 69380ff74c91bbb7156fe72d9e1eab9a4812c5a2
Подписка на обновления:

Торренты, похожие на Команда мечты La Dream Team скачать торрент

Форум Название Автор Размер S L Добавлен
Зарубежные фильмы 2016-2017 (Новинки зарубежного кино) ·· Команда мечты / La Dream Team (Тома Соррио / Thomas Sorriaux) [2016, Франция, комедия, HDRip] Galfimbul 15626731521.46 GB 2 0 1507612812

08:20

10-Окт-17

Зарубежные фильмы до 2016 ·· Команда мечты / La Dream Team (Тома Соррио / Thomas Sorriaux) [2016, Франция, комедия, BDRip 720p] [FRE Transfer] MVO + Sub Fre + Original Fre Galfimbul 45788539864.26 GB 0 0 1505243293

22:08

12-Сен-17

Еще никто не оставлял запись к записи скачать торрент Команда мечты La Dream Team . Будь первым!

!Обратная связь