Скачать через торрент Пресс-конференция Романа Лабусова Фильм бесплатно в хорошем качестве torrent

Скачивайте на UnionPeer.org фильмы через торрент без регистрации. Новинки кино в хорошем качестве через торрент. На UnionPeer.org можно скачать через торрент фильмы 2014 и 2015 годов. Самые новые фильмы.

Скачать торрент Пресс-конференция Романа Лабусова бесплатно через .torrent фильм мультфильм сериал

Если у вас наблюдаются проблемы со скриншотами, переходом по ссылками, скачиванием торрентов - проблемы в блокировщике рекламы AdBlock. #хорошегоДня!


Статистика раздачи
Размер:  234 MB   |    Зарегистрирован:  9 дней   |    .torrent скачан:  5 раз   |   
Раздают:  1  
   
Загрузка...
 
Автор Сообщение

Galfimbul

avatar Galfimbul


Пресс-конференция Романа Лабусова

Дата/Год выпуска: 05.10.2017
Страна: Россия
Жанр: Информационная передача
Продолжительность: 00:26:39
Перевод: Не требуется
Русские субтитры: нет

Описание: Начальник подразделения шифровальной связи СБУ, подполковник Роман Лабусов перешел на сторону Донецкой Народной Республики. О мотивах своего поступка сотрудник украинских спецслужб рассказал 5 октября в ходе пресс-конференции в Донецке: «Один из моих мотивов – текст присяги, который гласит, что военнослужащий клянется перед гражданами Украины быть преданным и верным, действовать в их интересах...»
Журналисты ДНР и центральных российских телеканалов «ВГТРК», «НТВ», «Звезда» задали Лабусову прямые вопросы, в том числе и о сбитом боинге MH17 в 2014 году.

качество: WEBRip
формат: MKV
Видео: AVC/H.264, 1920x1080 (16:9), ~1098 kbps, 25 fps
Аудио: AAC, 126 kbps, 44.1 kHz, 2 ch
GeneralUnique ID : 234296022245799283807782559689225436556 (0xB043C5C32D120CE88DE8AE3AF1EE7D8C)Complete name : D:\Film\Пресс-конференция Романа Лабусова.mkvFormat : MatroskaFormat version : Version 4 / Version 2File size : 234 MiBDuration : 26 min 39 sOverall bit rate : 1 227 kb/sEncoded date : UTC 2017-10-08 06:41:54Writing application : mkvmerge v16.0.0 ('Protest') 64-bitWriting library : libebml v1.3.5 + libmatroska v1.4.8Cover : YesAttachments : cover.png

VideoID : 1Format : AVCFormat/Info : Advanced Video CodecFormat profile : High@L4Format settings : CABAC / 3 Ref FramesFormat settings, CABAC : YesFormat settings, RefFrames : 3 framesCodec ID : V_MPEG4/ISO/AVCDuration : 26 min 39 sBit rate : 1 098 kb/sWidth : 1 920 pixelsHeight : 1 080 pixelsDisplay aspect ratio : 16:9Frame rate mode : ConstantFrame rate : 25.000 FPSColor space : YUVChroma subsampling : 4:2:0Bit depth : 8 bitsScan type : ProgressiveBits/(Pixel*Frame) : 0.021Stream size : 209 MiB (90%)Language : RussianDefault : YesForced : NoColor range : LimitedColor primaries : BT.709Transfer characteristics : BT.709Matrix coefficients : BT.709

AudioID : 2Format : AACFormat/Info : Advanced Audio CodecFormat profile : LCCodec ID : A_AAC-2Duration : 26 min 39 sBit rate : 126 kb/sChannel(s) : 2 channelsChannel positions : Front: L RSampling rate : 44.1 kHzFrame rate : 43.066 FPS (1024 SPF)Compression mode : LossyStream size : 23.9 MiB (10%)Language : RussianDefault : YesForced : No


Трекер:  [ 12-Окт-2017 05:42 ]

  

Скачать .torrent

Размер .torrent файла 37 KB


Размер: 234 MB
Хэш (hash) релиза: 1178f09a4fb2f1ee19dcf2b0aa72ddeb8cd94fda
Подписка на обновления:

Еще никто не оставлял запись к записи скачать торрент Пресс-конференция Романа Лабусова . Будь первым!

!Обратная связь