Скачать через торрент Клятва The Vow Фильм бесплатно в хорошем качестве torrent

Скачивайте на UnionPeer.org фильмы через торрент без регистрации. Новинки кино в хорошем качестве через торрент. На UnionPeer.org можно скачать через торрент фильмы 2014 и 2015 годов. Самые новые фильмы.

Скачать торрент Клятва The Vow бесплатно через .torrent фильм мультфильм сериал

Если у вас наблюдаются проблемы со скриншотами, переходом по ссылками, скачиванием торрентов - проблемы в блокировщике рекламы AdBlock. #хорошегоДня!


Статистика раздачи
Размер:  2.07 GB   |    Зарегистрирован:  9 дней   |    .torrent скачан:  3 раза   |   
Раздают:  2  
   
Загрузка...
 
Автор Сообщение

Galfimbul

avatar Galfimbul


Клятва : The Vow
Страна: США, Франция, Австралия, Великобритания, Германия, Канада
Жанр: драма, мелодрама
Продолжительность: 01:35:58
Год выпуска: 2012
Перевод: Профессиональный (дублированный) - Невафильм
Субтитры: отсутствуют
Оригинальная аудиодорожка: английскийРежиссёр: Майкл Сакси : Michael Sucsy.
В ролях: Рэйчел МакАдамс, Ченнинг Татум, Сэм Нил, Скотт Спидман, Джессика Лэнг, Джессика МакНэми, Венди Крюсон, Татьяна Маслани, Лукас Брайант, Джои Клейн...Описание: Во время медового месяца Пейдж и Лео попадают в автокатастрофу. Пока жена находится в коме, Лео не отходит от ее кровати ни на час, но возвращение девушки к жизни омрачено потерей памяти — она не узнает любимого и не помнит об их романе. И тогда Лео решает заново завоевать сердце Пейдж.
Семпл: http://sendfile.su/1366508Доп. информация: Наполнение кадра отличается от BD - http://screenshotcomparison.com/comparison/119288/. Рекламных баннеров нет.
Аудиодорожки взяты с BD.
За запись фильма спасибо Mr-Maximus.Качество: SATRip [НТК] (эфир 01.09.2017)
Формат: AVI
Видео: XviD 67, 720x400 (16:9), 25 fps, ~2176 kbps, 0.302 bit/pixel
Аудио #1: [RUS] 48 kHz, AC3 Dolby Digital, 5.1 ch, 448 kbps
Аудио #2: [ENG] 48 kHz, AC3 Dolby Digital, 5.1 ch, 448 kbps
Общее
Полное имя : F:\The.Vow.2012.XviD.SATRip.avi
Формат : AVI
Формат/Информация : Audio Video Interleave
Профиль формата : OpenDML
Размер файла : 2,07 Гбайт
Продолжительность : 1 ч. 35 м.
Общий поток : 3091 Кбит/сек
Программа кодирования : VirtualDubMod 1.5.10.2 (build 2540/release)
Библиотека кодирования : VirtualDubMod build 2540/release

Видео
Идентификатор : 0
Формат : MPEG-4 Visual
Профиль формата : Advanced Simple@L5
Параметр BVOP формата : 2
Параметр QPel формата : Нет
Параметр GMC формата : Без точки перехода
Параметр матрицы формата : Default (H.263)
Идентификатор кодека : XVID
Идентификатор кодека/Подсказка : XviD
Продолжительность : 1 ч. 35 м.
Битрейт : 2176 Кбит/сек
Ширина : 720 пикселей
Высота : 400 пикселей
Соотношение сторон : 16:9
Частота кадров : 25,000 кадров/сек
Цветовое пространство : YUV
Субдискретизация насыщенности : 4:2:0
Битовая глубина : 8 бит
Тип развёртки : Прогрессивная
Метод сжатия : С потерями
Бит/(Пиксели*Кадры) : 0.302
Размер потока : 1,46 Гбайт (70%)
Библиотека кодирования : XviD 67

Аудио #1
Идентификатор : 1
Формат : AC-3
Формат/Информация : Audio Coding 3
Параметр Endianness формата : Big
Идентификатор кодека : 2000
Продолжительность : 1 ч. 35 м.
Вид битрейта : Постоянный
Битрейт : 448 Кбит/сек
Каналы : 6 каналов
Расположение каналов : Front: L C R, Side: L R, LFE
Частота : 48,0 КГц
Частота кадров : 31,250 кадров/сек (1536 SPF)
Битовая глубина : 16 бит
Метод сжатия : С потерями
Размер потока : 307 Мбайт (14%)
Выравнивание : Разделение по промежуткам
Продолжительность промежутка : 40 мс. (1,00 видеокадр)
Время предзагрузки промежутка : 500 мс.
ServiceKind/String : Complete Main

Аудио #2
Идентификатор : 2
Формат : AC-3
Формат/Информация : Audio Coding 3
Параметр Endianness формата : Big
Идентификатор кодека : 2000
Продолжительность : 1 ч. 35 м.
Вид битрейта : Постоянный
Битрейт : 448 Кбит/сек
Каналы : 6 каналов
Расположение каналов : Front: L C R, Side: L R, LFE
Частота : 48,0 КГц
Частота кадров : 31,250 кадров/сек (1536 SPF)
Битовая глубина : 16 бит
Метод сжатия : С потерями
Размер потока : 307 Мбайт (14%)
Выравнивание : Разделение по промежуткам
Продолжительность промежутка : 40 мс. (1,00 видеокадр)
Время предзагрузки промежутка : 500 мс.
ServiceKind/String : Complete Main


Трекер:  [ 11-Окт-2017 16:01 ]

  

Скачать .torrent

Размер .torrent файла 11 KB


Размер: 2.07 GB
Хэш (hash) релиза: 745b34d7893d1a9a66eb4273cdc89cfcf17ed14c
Подписка на обновления:

Торренты, похожие на Клятва The Vow скачать торрент

Форум Название Автор Размер S L Добавлен
Зарубежные фильмы до 2016 ·· Клятва / The Vow (Майкл Сакси / Michael Sucsy) [2012, США, мелодрама, DVD9 (Custom)] Dub, Ukr, Sub Rus, Eng + Original Eng Galfimbul 60658135045.65 GB 0 0 1347985320

19:22

18-Сен-12

Зарубежные фильмы до 2016 ·· Клятва / The Vow (Майкл Сакси / Michael Sucsy) [2012, США, Германия, Франция, Бразилия, Великобритания, Австралия, драма, мелодрама, BDRip-AVC] Dub + Original Eng + Sub Galfimbul 31196343202.91 GB 0 0 1336225860

16:51

5-Май-12

Зарубежные фильмы до 2016 ·· Клятва / The Vow (Майкл Сакси / Michael Sucsy) [2012, США, Германия, Франция, Бразилия, Великобритания, Австралия, драма, мелодрама, BDRip 720p] Dub Sub Eng + Original Eng L 56767253655.29 GB 0 0 1335070440

07:54

22-Апр-12

Звуковые дорожки и Переводы ·· Клятва / The Vow (Майкл Сакси / Michael Sucsy) [2012, драма, мелодрама, AC3] Dub (Rus, Ukr) L 997478400951 MB 0 0 1335070380

07:53

22-Апр-12

Зарубежные фильмы до 2016 ·· Клятва / The Vow (Майкл Сакси / Michael Sucsy) [2012, США, Германия, Франция, Бразилия, Великобритания, Австралия, драма, мелодрама, BDRip 1080p] Dub Sub Rus + Original Eng L 1151344016610.72 GB 0 0 1335070260

07:51

22-Апр-12

Зарубежные фильмы до 2016 ·· Клятва / The Vow (Майкл Сакси / Michael Sucsy) [2012, США, Германия, Франция, Бразилия, Великобритания, Австралия, драма, мелодрама, Blu-ray 1080p CEE] L 3639536408533.9 GB 0 0 1335070260

07:51

22-Апр-12

Зарубежные фильмы до 2016 ·· Клятва / The Vow (Майкл Сакси / Michael Sucsy) [2012, США, Германия, Франция, Бразилия, Великобритания, Австралия, драма, мелодрама, HDRip] R5 Dub Лицензия Galfimbul 15636746241.46 GB 0 0 1334949420

22:17

20-Апр-12

Зарубежные фильмы до 2016 ·· Клятва / The Vow (Майкл Сакси / Michael Sucsy) [2012, США, Германия, Франция, Бразилия, Великобритания, Австралия, драма, мелодрама, DVDRip-AVC] Dub + Dub ukr + Sub rus forced L 15612063321.45 GB 0 0 1332616020

22:07

24-Мар-12

Зарубежные фильмы до 2016 ·· Клятва / The Vow (Майкл Сакси / Michael Sucsy) [2012, драма, мелодрама, DVDRip] DUB (Лицензия) L 781115392745 MB 0 0 1332615840

22:04

24-Мар-12

Зарубежные фильмы до 2016 ·· Клятва / The Vow (Майкл Сакси / Michael Sucsy) [2012, драма, мелодрама, HDRip ][Лицензия] Galfimbul 15104389121.41 GB 0 0 1329771668

00:01

21-Фев-12

Еще никто не оставлял запись к записи скачать торрент Клятва The Vow . Будь первым!

!Обратная связь