Скачать через торрент Возвращение к истокам La clef des champs Фильм бесплатно в хорошем качестве torrent

Скачивайте на UnionPeer.org фильмы через торрент без регистрации. Новинки кино в хорошем качестве через торрент. На UnionPeer.org можно скачать через торрент фильмы 2014 и 2015 годов. Самые новые фильмы.

Скачать торрент Возвращение к истокам La clef des champs бесплатно через .torrent фильм мультфильм сериал

Если у вас наблюдаются проблемы со скриншотами, переходом по ссылками, скачиванием торрентов - проблемы в блокировщике рекламы AdBlock. #хорошегоДня!


Статистика раздачи
Размер:  2.05 GB   |    Зарегистрирован:  9 дней   |    .torrent скачан:  4 раза   |   
Раздают:  1  
   
Загрузка...
 
Автор Сообщение

Galfimbul

avatar Galfimbul


Возвращение к истокам
La clef des champs
Страна: Франция, Швейцария
Жанр: комедия
Год выпуска: 2014
Продолжительность: 01:28:58Перевод: Субтитры (русский перевод А.Вижье, Éclair Group)
Субтитры: русские, английские, французские, немецкие, нидерландские
Оригинальная аудиодорожка: французский

Режиссер: Бертран Ван Эффентерре / Bertrand Van Effenterre

В ролях: Франсуа Берлеан / François Berléand (Fred), Флоранс Пернель / Florence Pernel (Romane), Изабель Садоян / Isabelle Sadoyan (Suzanne), Реми Адриенс / Rémy Adriaens (Théo), Николь Бионди / Nicole Biondi (Gigi), Джеки Берруайе / Jackie Berroyer (Patrick), Натали Безансон / Nathalie Besançon (Marilou)

Описание: Фред, парижский кулинарный обозреватель, вернулся в родной Лион, чтобы отыскать свою мать, сбежавшую из дома престарелых…

Доп. информация: Hot Bird (13.0°E) TV5MONDE Europe DVB-S

Качество видео: DVB
Формат видео: MKV

Видео: MPEG Video 2, 720x576@1024x576 (16:9), 25 fps, ~3041 kbps avg, 0.293 bit/pixel
Аудио: MPEG Audio 2, 2 ch, 48 kHz, 192 kbps - французский
Формат субтитров: softsub (SRT)
100:00:06,528 --> 00:00:09,976Я сейчас в машине.Еду на презентацию книги.

200:00:09,976 --> 00:00:13,045Я сейчас не могу говорить.Потом позвоню.

300:00:13,045 --> 00:00:14,732Что у нас на этой неделе?

400:00:14,732 --> 00:00:17,161В понедельникты выступаешь по радио

500:00:17,161 --> 00:00:20,049и записываешь"Бонмезон ужинает у Бонмезона".

600:00:20,049 --> 00:00:23,443Во вторник - 200-летиеДома "Вдова Жилар".

700:00:23,443 --> 00:00:25,574Ясно.Хватит, я все понял.

800:00:25,574 --> 00:00:27,733Можешь не продолжать.

900:00:27,733 --> 00:00:29,768Какой снимок для "Гастрономии"?

1000:00:29,768 --> 00:00:34,687Не знаю.Никак не могу выбрать.

1100:00:34,687 --> 00:00:36,093Тут я не слишком

1200:00:36,093 --> 00:00:38,767похож на Келлерав его журнале?

1300:00:38,767 --> 00:00:40,162Ты так думаешь?

1400:00:40,162 --> 00:00:41,376Перестань!

1500:00:41,376 --> 00:00:43,566Что за идиотские вопросы?

1600:00:43,566 --> 00:00:45,651Ты же его агент!

1700:00:45,651 --> 00:00:47,803Я же сам вас познакомил.

1800:00:47,803 --> 00:00:53,655Если уж даже моя бывшая женапокупает журнал Келлера...

1900:00:53,655 --> 00:00:55,780Алло! Да?

2000:00:56,409 --> 00:00:57,731Да.
GeneralUnique ID : 232010642520066222606162091924947418661 (0xAE8B9FD7AB29E80EB13CB7EFC6EB3E25)Complete name : [apreder]La_clef_des_champs(2014)DVB.mkvFormat : MatroskaFormat version : Version 2File size : 2.05 GiBDuration : 1 h 28 minOverall bit rate mode : VariableOverall bit rate : 3 298 kb/sMovie name : La clef des champsReleased date : 2014-06-07Encoded date : UTC 2017-10-11 12:37:13Writing application : mkvmerge v16.0.0 ('Protest') 64-bitWriting library : libebml v1.3.5 + libmatroska v1.4.8Cover : YesAttachments : cover.jpg / small_cover.jpgACTOR : François Berléand, Florence Pernel, Isabelle SadoyanDIRECTOR : Bertrand Van EffenterreGENRE : ComedyIMDB : tt3521330KEYWORDS : rutracker.orgLAW_RATING : 16+

VideoID : 1Format : MPEG VideoFormat version : Version 2Format profile : Main@MainFormat settings : CustomMatrix / BVOPFormat settings, BVOP : YesFormat settings, Matrix : CustomFormat settings, GOP : VariableFormat settings, picture structure : FrameCodec ID : V_MPEG2Codec ID/Info : MPEG 1 or 2 VideoDuration : 1 h 28 minBit rate mode : VariableBit rate : 3 041 kb/sMaximum bit rate : 15.0 Mb/sWidth : 720 pixelsHeight : 576 pixelsDisplay aspect ratio : 16:9Active Format Description : Letterbox 16:9 imageFrame rate mode : ConstantFrame rate : 25.000 FPSStandard : PALColor space : YUVChroma subsampling : 4:2:0Bit depth : 8 bitsScan type : InterlacedScan order : Top Field FirstCompression mode : LossyBits/(Pixel*Frame) : 0.293Stream size : 1.89 GiB (92%)Default : YesForced : No

AudioID : 2Format : MPEG AudioFormat version : Version 1Format profile : Layer 2Format settings : Joint stereo / Intensity Stereo + MS StereoMode : Joint stereoMode extension : Intensity Stereo + MS StereoCodec ID : A_MPEG/L2Codec ID/Hint : MP2Duration : 1 h 28 minBit rate mode : ConstantBit rate : 192 kb/sChannel(s) : 2 channelsSampling rate : 48.0 kHzCompression mode : LossyStream size : 122 MiB (6%)Language : FrenchDefault : YesForced : No

Text #1ID : 3Format : UTF-8Codec ID : S_TEXT/UTF8Codec ID/Info : UTF-8 Plain TextLanguage : RussianDefault : NoForced : No

Text #2ID : 4Format : UTF-8Codec ID : S_TEXT/UTF8Codec ID/Info : UTF-8 Plain TextLanguage : EnglishDefault : NoForced : No

Text #3ID : 5Format : UTF-8Codec ID : S_TEXT/UTF8Codec ID/Info : UTF-8 Plain TextLanguage : FrenchDefault : NoForced : No

Text #4ID : 6Format : UTF-8Codec ID : S_TEXT/UTF8Codec ID/Info : UTF-8 Plain TextLanguage : GermanDefault : NoForced : No

Text #5ID : 7Format : UTF-8Codec ID : S_TEXT/UTF8Codec ID/Info : UTF-8 Plain TextLanguage : DutchDefault : NoForced : No


<div class="sp-wrap">
<div class="sp-head folded">Резервные скриншоты</div>
<div class="sp-body">

</div>
</div>
[2'278]

Трекер:  [ 11-Окт-2017 16:01 ]

  

Скачать .torrent

Размер .torrent файла 21 KB


Размер: 2.05 GB
Хэш (hash) релиза: b6afcd3d8287482700b485691c51b716c48734b8
Подписка на обновления:

Торренты, похожие на Возвращение к истокам La clef des champs скачать торрент

Форум Название Автор Размер S L Добавлен
Зарубежные фильмы до 2016 ·· Возвращение к истокам / La clef des champs (Бертран Ван Эффентерре / Bertrand Van Effenterre) [2014, Франция, Швейцария, комедия, DVB] Original (Fre) + Sub (Rus) Galfimbul 23253299202.17 GB 0 0 1431284218

21:56

10-Май-15

Еще никто не оставлял запись к записи скачать торрент Возвращение к истокам La clef des champs . Будь первым!

!Обратная связь