Скачать через торрент Удивительные Злоключения Флэпджека The Marvelous Misadventures of Flapjack Фильм бесплатно в хорошем качестве torrent

Скачивайте на UnionPeer.org фильмы через торрент без регистрации. Новинки кино в хорошем качестве через торрент. На UnionPeer.org можно скачать через торрент фильмы 2014 и 2015 годов. Самые новые фильмы.

Скачать торрент Удивительные Злоключения Флэпджека The Marvelous Misadventures of Flapjack бесплатно через .torrent фильм мультфильм сериал

Если у вас наблюдаются проблемы со скриншотами, переходом по ссылками, скачиванием торрентов - проблемы в блокировщике рекламы AdBlock. #хорошегоДня!


Статистика раздачи
Размер:  1.7 GB   |    Зарегистрирован:  11 дней   |    .torrent скачан:  4 раза   |   
Раздают:  2  
   
Загрузка...
 
Автор Сообщение

Galfimbul

avatar Galfimbul


Удивительные Злоключения Флэпджека
The Marvelous Misadventures of FlapjackСезон 3Серии: 1-12 из 12
Страна: США
Производство: Cartoon Network
Жанр: Мультфильм, фэнтези, комедия, приключения
Продолжительность: 00:11:00
Года выпуска: 2010
Перевод:

Профессиональный (полное дублирование) | Cartoon Network
Оригинальная звуковая дорожка (English)

Русские субтитры: нет
Английские субтитры: нетРежиссёр: Туроп Ван Орман / Thurop Van OrmanЭтот необычный мультфильм рассказывает о невероятных морских, и не только, приключениях маленького мальчика Флепджека и его друга Капитана Кастета. Вместе они живут и путешествуют на большой китихе Бабби, которая когда-то давно приютила малыша Флепа и теперь ему вместо мамы. Все вместе они отправляются на опасные поиски острова Карамелии, учатся завоевывать побольше врагов, чтобы стать настоящими путешественниками и спасаются от короля острова Кленового Сиропа. В какие только приключения не попадает веселый Флепджек. Все раздачи мультсериалаКачество: WEB-DL 360p iTunes
Формат: MKV
Видео: 640x360 (16:9) at 24.000 fps, Baseline@L3, ~1400 kbps avg, ~0.250bpp
Аудио:

Russian: 48 kHz, AC3 Dolby Digital, 2 ch, ~192 kbps | Cartoon Network
English: 44.1 kHz, AAC Dolby Digital, 2 ch, ~128 kbps
GeneralUnique ID : 189502858580879005722042454921473406390 (0x8E90EC48FE4945D08EA10582118BB5B6)Complete name : \The Marvelous Misadventures of Flapjack - Season 3\The.Marvelous.Misadventures.of.Flapjack.s03e05e06.Candy.Colleague.-.These.Boots.Were.Made.for.Walking.(On.Your.Face).WEB-DL.360p.mkvFormat : MatroskaFormat version : Version 4 / Version 2File size : 279 MiBDuration : 23 min 4 sOverall bit rate : 1 688 kb/sMovie name : Candy Colleague / These Boots Were Made for Walking (On Your Face)Encoded date : UTC 2017-10-11 11:06:12Writing application : mkvmerge v16.0.0 ('Protest') 64-bitWriting library : libebml v1.3.5 + libmatroska v1.4.8Attachments : poster_ flapjack.jpg

VideoID : 1Format : AVCFormat/Info : Advanced Video CodecFormat profile : Baseline@L3Format settings, CABAC : NoFormat settings, ReFrames : 1 frameCodec ID : V_MPEG4/ISO/AVCDuration : 23 min 4 sBit rate : 1 370 kb/sWidth : 640 pixelsHeight : 360 pixelsDisplay aspect ratio : 16:9Frame rate mode : ConstantFrame rate : 23.976 (23976/1000) FPSColor space : YUVChroma subsampling : 4:2:0Bit depth : 8 bitsScan type : ProgressiveBits/(Pixel*Frame) : 0.248Stream size : 226 MiB (81%)Title : The Marvelous Misadventures of FlapjackLanguage : EnglishDefault : YesForced : NoColor range : LimitedColor primaries : BT.601 NTSCTransfer characteristics : BT.709Matrix coefficients : BT.601

Audio #1ID : 2Format : AC-3Format/Info : Audio Coding 3Mode extension : CM (complete main)Format settings, Endianness : BigCodec ID : A_AC3Duration : 23 min 4 sBit rate mode : ConstantBit rate : 192 kb/sChannel(s) : 2 channelsChannel positions : Front: L RSampling rate : 48.0 kHzFrame rate : 31.250 FPS (1536 spf)Bit depth : 16 bitsCompression mode : LossyStream size : 31.7 MiB (11%)Title : [Dub Cartoon Network]Language : RussianDefault : YesForced : No

Audio #2ID : 3Format : AACFormat/Info : Advanced Audio CodecFormat profile : LCCodec ID : A_AACDuration : 23 min 4 sBit rate : 122 kb/sChannel(s) : 2 channelsChannel positions : Front: L RSampling rate : 44.1 kHzFrame rate : 43.066 FPS (1024 spf)Compression mode : LossyStream size : 20.2 MiB (7%)Title : OriginalLanguage : EnglishDefault : NoForced : No

Menu00:00:00.000 : en:Intro00:00:31.698 : en:Candy Colleague00:11:14.883 : en:These Boots Were Made for Walking (On Your Face)
(Полноразмерные скриншоты открываются кликом по миниатюре)
01a. Осторожно на рыбалке / Careful What You Fish For
01b. Мэр или не мэр? / Mayor May Not
02a. Я верю / I'm a Believer
02b. Врет и глазом не мигнет / Liar, Liar, You for Hire?
03a. Сладкий коллега / Candy Colleague
03b. Эти сапоги были сделаны для ходьбы (на вашем лице) / These Boots Were Made for Walking (On Your Face)
04a. Моряк-горец / Highlandlubber
04b. Кто выпустил кота из мешка? / Who Let the Cats Out of the Old Bag's House?
05a. Взбито-сливочный шторм / Parfait Storm
05b. Не будь героем, Кастет !/ K'nuckles, Don't Be a Hero!
06a. Лови меня, Конфетка / Catch Me If You Candy
06b. Уак рыба без воды / Fish Out of Water


Трекер:  [ 11-Окт-2017 14:54 ]

  

Скачать .torrent

Размер .torrent файла 18 KB


Размер: 1.7 GB
Хэш (hash) релиза: 060b130697775303b51f678037128a1298a00aa2
Подписка на обновления:

Еще никто не оставлял запись к записи скачать торрент Удивительные Злоключения Флэпджека The Marvelous Misadventures of Flapjack . Будь первым!

!Обратная связь