Скачать через торрент Секс-Трип The Sex Trip Фильм бесплатно в хорошем качестве torrent

Скачивайте на UnionPeer.org фильмы через торрент без регистрации. Новинки кино в хорошем качестве через торрент. На UnionPeer.org можно скачать через торрент фильмы 2014 и 2015 годов. Самые новые фильмы.

Скачать торрент Секс-Трип The Sex Trip бесплатно через .torrent фильм мультфильм сериал

Если у вас наблюдаются проблемы со скриншотами, переходом по ссылками, скачиванием торрентов - проблемы в блокировщике рекламы AdBlock. #хорошегоДня!


Статистика раздачи
Размер:  694 MB   |    Зарегистрирован:  9 дней   |    .torrent скачан:  99 раз   |   
Раздают:  1  
   
Загрузка...
 
Автор Сообщение

Galfimbul

avatar Galfimbul


Секс-Трип /The Sex Trip

Год выхода: 2017
Жанр: фэнтези, комедия
Режиссер: Энтони Дж. Коэн
В ролях: Джейд Рэмси, Луис Мэндилор, Марк Крамптон, Шарлотта Эллен Прайс, Рэйчел Бритаг, Наташа Бласик, Ребекка Грант, Джим Хэнкс

О фильме: Всего себя красавчик Эдди Гринлиф посвятил искусству соблазнения женщин. Эдди ведёт тренинги, пишет книги, раздаёт интервью и каждый божий день применяет свои теории на практике, укладывая в свою постель самых привлекательных представительниц прекрасного пола. Однако такая озабоченная-беззаботная жизнь просто не могла длиться вечно и сама судьба в виде уродливой ведьмы наказала Эдди. Как-то раз, направляясь на вечерику, Эдди повстречал старуху, которая потребовала его поцелуй.



Страна: США
Студия: Bridgegate FIlms
Продолжительность: 01:21:59
Перевод: Профессиональный (полное дублирование) | iTunes
Субтитры: Нет

Файл
Кодек: XviD
Качество: WEB-DLRip
Видео: 720x304 (2.37:1), 24 fps, XviD build 73 ~1045 kbps avg, 0.20 bit/pixel
Звук: 48 kHz, MPEG Layer 3, 2 ch, ~128.00 kbps avg
General
Complete name : The.Sex.Trip.2017.WEB-DLRip.ot.Portablius.avi
Format : AVI
Format/Info : Audio Video Interleave
File size : 694 MiB
Duration : 1 h 21 min
Overall bit rate : 1 183 kb/s
Writing application : VirtualDubMod 1.5.10.3 | www.virtualdub-fr.org || (build 2550/release)
Writing library : VirtualDubMod build 2550/release

Video
ID : 0
Format : MPEG-4 Visual
Format profile : Advanced Simple@L5
Format settings, BVOP : 1
Format settings, QPel : No
Format settings, GMC : No warppoints
Format settings, Matrix : Custom
Codec ID : XVID
Codec ID/Hint : XviD
Duration : 1 h 21 min
Bit rate : 1 046 kb/s
Width : 720 pixels
Height : 304 pixels
Display aspect ratio : 2.35:1
Frame rate : 24.000 FPS
Color space : YUV
Chroma subsampling : 4:2:0
Bit depth : 8 bits
Scan type : Progressive
Compression mode : Lossy
Bits/(Pixel*Frame) : 0.199
Stream size : 613 MiB (88%)
Writing library : XviD 73

Audio
ID : 1
Format : MPEG Audio
Format version : Version 1
Format profile : Layer 3
Codec ID : 55
Codec ID/Hint : MP3
Duration : 1 h 21 min
Bit rate mode : Constant
Bit rate : 128 kb/s
Channel(s) : 2 channels
Sampling rate : 48.0 kHz
Compression mode : Lossy
Stream size : 75.1 MiB (11%)
Alignment : Aligned on interleaves
Interleave, duration : 42 ms (1.00 video frame)
Interleave, preload duratio : 504 ms
Writing library : LAME3.99r
Encoding settings : -m s -V 4 -q 2 -lowpass 17 -b 128
Источник http://arutor.org

Трекер:  [ 11-Окт-2017 14:40 ]

  

Скачать .torrent

Размер .torrent файла 14 KB


Размер: 694 MB
Хэш (hash) релиза: 53fef30568fd68bffe70d89c66140504bca271b3
Подписка на обновления:

Торренты, похожие на Секс-Трип The Sex Trip скачать торрент

Форум Название Автор Размер S L Добавлен
Зарубежные фильмы 2016-2017 (Новинки зарубежного кино) ·· Секс-Трип / The Sex Trip (Энтони Дж. Коэн / Anthony G. Cohen) [2017, США, фэнтези, комедия, WEB-DLRip-AVC] Dub Galfimbul 15635852841.46 GB 2 0 1507705277

10:01

11-Окт-17

Зарубежные фильмы 2016-2017 (Новинки зарубежного кино) ·· Секс-Трип / The Sex Trip (Энтони Дж. Коэн) [2017 г., фэнтези, комедия, WEB-DLRip] DUB | iTunes Galfimbul 14678118401.37 GB 2 0 1507198789

13:19

5-Окт-17

Зарубежные фильмы 2016-2017 (Новинки зарубежного кино) ·· Секс-Трип / The Sex Trip (Энтони Дж. Коэн / Anthony G. Cohen) [2017, США, фэнтези, комедия, WEB-DLRip] Dub (iTunes) Galfimbul 14678118401.37 GB 2 0 1507183288

09:01

5-Окт-17

Зарубежные фильмы 2016-2017 (Новинки зарубежного кино) ·· Секс-Трип / The Sex Trip (Энтони Дж. Коэн) [2017 г., фэнтези, комедия, WEB-DL 720р] iTunes Galfimbul 27664435302.58 GB 2 0 1507181447

08:30

5-Окт-17

Зарубежные фильмы 2016-2017 (Новинки зарубежного кино) ·· Секс-Трип / The Sex Trip (Энтони Дж. Коэн) [2017 г., фэнтези, комедия, WEB-DL 1080р] iTunes Galfimbul 30704813732.86 GB 5 0 1507181431

08:30

5-Окт-17

Зарубежные фильмы 2016-2017 (Новинки зарубежного кино) ·· Секс-Трип / The Sex Trip (Энтони Дж. Коэн) [2017 г., фэнтези, комедия, CAMRip] DUB Galfimbul 14677258241.37 GB 0 0 1505524097

04:08

16-Сен-17

Еще никто не оставлял запись к записи скачать торрент Секс-Трип The Sex Trip . Будь первым!

!Обратная связь