Скачать через торрент Дэвид Боуи: Последние Пять Лет David Bowie: The Last Five Years Фильм бесплатно в хорошем качестве torrent

Скачивайте на UnionPeer.org фильмы через торрент без регистрации. Новинки кино в хорошем качестве через торрент. На UnionPeer.org можно скачать через торрент фильмы 2014 и 2015 годов. Самые новые фильмы.

Скачать торрент Дэвид Боуи: Последние Пять Лет David Bowie: The Last Five Years бесплатно через .torrent фильм мультфильм сериал

Если у вас наблюдаются проблемы со скриншотами, переходом по ссылками, скачиванием торрентов - проблемы в блокировщике рекламы AdBlock. #хорошегоДня!


Статистика раздачи
Размер:  1.81 GB   |    Зарегистрирован:  9 дней   |    .torrent скачан:  3 раза   |   
Раздают:  1  
   
Загрузка...
 
Автор Сообщение

Galfimbul

avatar Galfimbul


Дэвид Боуи: Последние Пять Лет / David Bowie: The Last Five Years
Год выпуска: 2017
Страна: Великобритания | A BBC Studios production
Телеканал: Первый Канал HD
Жанр: Документальный
Продолжительность: 0:59:14
Перевод: Профессиональный (многоголосый закадровый) | по заказу "Первый Канал"
Автор сценария и режиссер: Френсис Уотли / Francis WhatelyОписание: Лента режиссера Френсиса Уотли посвящена последним пяти годам жизни Дэвида Боуи. В центре внимания — альбомы «The Next Day» и «Blackstar», а также мюзикл «Лазарь». Именно в этот период жизни музыканта публика обращала на него максимальное внимание. В фильме показано, как Боуи в своей последней работе вернулся к темам, которых касался на протяжении всего своего творческого пути. Картина содержит интервью с музыкантами, дизайнерами и режиссерами клипов, которые в это время работали с Боуи. Автор рипа: lrn
Автор записи: Alexin29
Сэмпл: sendfileТип релиза: HDTVRip 720p
Контейнер: MKV
Видео: 1280x720 (16:9), 25,000 fps, H264, ~4000 kbps avg, ~0.174 bit/pixel
Аудио: 48 kHz, AC3 Dolby Digital, 3/2 (L,C,R,l,r) + LFE ch, ~384.00 kbps avg
GeneralUnique ID : 181275858720290524011936830689300609134 (0x886075E013AE04E599364AEDA53E786E)Complete name : David.Bowie.The.Last.Five.Years.2017.HDTVRip.720p.x264-RUS-lrn.mkvFormat : MatroskaFormat version : Version 4 / Version 2File size : 1.81 GiBDuration : 59 min 14 sOverall bit rate : 4 385 kb/sMovie name : David.Bowie.The.Last.Five.Years.2017.HDTVRip.720p.x264-RUS-lrnEncoded date : UTC 2010-02-22 21:41:31Writing application : mkvmerge v5.9.0 ('On The Loose') built on Dec 9 2012 15:37:01Writing library : libebml v1.3.0 + libmatroska v1.4.0

VideoID : 1Format : AVCFormat/Info : Advanced Video CodecFormat profile : High@L4.1Format settings : CABAC / 8 Ref FramesFormat settings, CABAC : YesFormat settings, RefFrames : 8 framesCodec ID : V_MPEG4/ISO/AVCDuration : 59 min 14 sBit rate : 4 000 kb/sWidth : 1 280 pixelsHeight : 720 pixelsDisplay aspect ratio : 16:9Frame rate mode : ConstantFrame rate : 25.000 FPSColor space : YUVChroma subsampling : 4:2:0Bit depth : 8 bitsScan type : ProgressiveBits/(Pixel*Frame) : 0.174Stream size : 1.62 GiB (89%)Writing library : x264 core 142 r2479 dd79a61Encoding settings : cabac=1 / ref=8 / deblock=1:-3:-3 / analyse=0x3:0x133 / me=umh / subme=9 / psy=1 / psy_rd=1.00:0.00 / mixed_ref=1 / me_range=32 / chroma_me=1 / trellis=2 / 8x8dct=1 / cqm=0 / deadzone=21,11 / fast_pskip=1 / chroma_qp_offset=-2 / threads=12 / lookahead_threads=2 / sliced_threads=0 / nr=0 / decimate=1 / interlaced=0 / bluray_compat=0 / constrained_intra=0 / bframes=8 / b_pyramid=2 / b_adapt=2 / b_bias=0 / direct=3 / weightb=1 / open_gop=0 / weightp=2 / keyint=250 / keyint_min=25 / scenecut=40 / intra_refresh=0 / rc_lookahead=50 / rc=2pass / mbtree=1 / bitrate=4000 / ratetol=1.0 / qcomp=0.60 / qpmin=0 / qpmax=69 / qpstep=4 / cplxblur=20.0 / qblur=0.5 / vbv_maxrate=62500 / vbv_bufsize=78125 / nal_hrd=none / filler=0 / ip_ratio=1.40 / aq=1:1.00Default : YesForced : NoColor range : LimitedColor primaries : BT.709Transfer characteristics : BT.709Matrix coefficients : BT.709

AudioID : 2Format : AC-3Format/Info : Audio Coding 3Format settings, Endianness : BigCodec ID : A_AC3Duration : 59 min 14 sBit rate mode : ConstantBit rate : 384 kb/sChannel(s) : 6 channelsChannel positions : Front: L C R, Side: L R, LFESampling rate : 48.0 kHzFrame rate : 31.250 FPS (1536 SPF)Bit depth : 16 bitsCompression mode : LossyDelay relative to video : -5 msStream size : 163 MiB (9%)Language : RussianService kind : Complete MainDefault : NoForced : No
raw [info]: 1280x720p 1:1 @ 25/1 fps (cfr)x264 [info]: using SAR=1/1x264 [info]: using cpu capabilities: MMX2 SSE2Fast SSSE3 SSE4.2 AVXx264 [info]: profile High, level 4.1x264 [info]: frame I:634 Avg QP:12.84 size: 98568x264 [info]: frame P:24016 Avg QP:15.69 size: 36494x264 [info]: frame B:64212 Avg QP:17.53 size: 13054x264 [info]: consecutive B-frames: 3.1% 4.9% 6.0% 69.7% 6.4% 5.7% 1.3% 2.5% 0.4%x264 [info]: mb I I16..4: 11.0% 73.3% 15.7%x264 [info]: mb P I16..4: 6.6% 19.8% 1.5% P16..4: 36.6% 18.4% 10.0% 0.4% 0.1% skip: 6.6%x264 [info]: mb B I16..4: 1.0% 2.8% 0.1% B16..8: 32.8% 10.3% 2.3% direct:10.0% skip:40.6% L0:42.4% L1:44.0% BI:13.6%x264 [info]: 8x8 transform intra:71.0% inter:64.6%x264 [info]: direct mvs spatial:98.6% temporal:1.4%x264 [info]: coded y,uvDC,uvAC intra: 64.7% 69.4% 44.7% inter: 25.2% 31.0% 3.7%x264 [info]: i16 v,h,dc,p: 69% 6% 4% 21%x264 [info]: i8 v,h,dc,ddl,ddr,vr,hd,vl,hu: 15% 10% 12% 8% 10% 12% 10% 12% 12%x264 [info]: i4 v,h,dc,ddl,ddr,vr,hd,vl,hu: 16% 9% 7% 9% 13% 14% 11% 10% 11%x264 [info]: i8c dc,h,v,p: 41% 21% 25% 13%x264 [info]: Weighted P-Frames: Y:5.1% UV:2.3%x264 [info]: ref P L0: 52.5% 8.6% 17.2% 6.2% 5.0% 4.0% 3.5% 2.5% 0.3% 0.0%x264 [info]: ref B L0: 78.0% 11.0% 4.7% 2.5% 1.9% 1.2% 0.6%x264 [info]: ref B L1: 95.2% 4.8%x264 [info]: kb/s:3999.86encoded 88862 frames, 12.67 fps, 3999.86 kb/s


Трекер:  [ 11-Окт-2017 13:12 ]

  

Скачать .torrent

Размер .torrent файла 18 KB


Размер: 1.81 GB
Хэш (hash) релиза: ed7a5265e300bd06b529cd2a17d0c36b00b8cd57
Подписка на обновления:

Торренты, похожие на Дэвид Боуи: Последние Пять Лет David Bowie: The Last Five Years скачать торрент

Форум Название Автор Размер S L Добавлен
Документальные фильмы и телепередачи ·· Дэвид Боуи: Последние Пять Лет / David Bowie: The Last Five Years (Френсис Уотли / Francis Whately) [2017, Документальный, HDTVRip-AVC] MVO (Первый Канал) Galfimbul 837818011799 MB 0 0 1508064227

13:43

15-Окт-17

Еще никто не оставлял запись к записи скачать торрент Дэвид Боуи: Последние Пять Лет David Bowie: The Last Five Years . Будь первым!

!Обратная связь