Скачать через торрент Созданный в Бездне Made in Abyss бесплатно Аниме Все серии на русском torrent

Если у вас наблюдаются проблемы со скриншотами, переходом по ссылками, скачиванием торрентов - проблемы в блокировщике рекламы AdBlock. #хорошегоДня!


Статистика раздачи
Размер:  5.17 GB   |    Зарегистрирован:  10 дней   |    .torrent скачан:  8 раз   |   
Раздают:  1  
   
Загрузка...
 
Автор Сообщение

Galfimbul

avatar Galfimbul


Созданный в Бездне
Страна:
Год выпуска: 2017
Жанр: комедия, романтика, драма, школа, сёнэн
Тип: TV
Продолжительность: 24 эп, 24 мин. серия
Режиссер: Масаюки Кодзима
Студия: Kinema CitrusМногоголосая авторская озвучка от :
Yu, Leonhart, Chirick, Daniel, VereneyR, Murrzik
Русские форсированные субтитры (надписи):
Оформление, перевод песен и караоке: ChirickРусские субтитры (1-9):
Перевод: Харитон Харько
Русские субтитры от YakuSub Studio (10-13):
Перевод: Lulu | Редактура: Aero | Оформление: HelgeОписание: Человечество всегда тяготело к изучению неизведанного. Даже если неизведанное хранило в себе безграничную опасность... Много сотен лет назад посреди южного моря был обнаружен остров, в основании которого зияло громадное отверстие. Вопрос, что же находится там, глубоко внизу, мгновенно отравил умы желающих заполучить предполагаемые богатства. Бесчисленные искатели приключений мало-помалу прибывали на этот клочок земли, спускались вниз, и вскоре выяснилось, что поживиться там и правда есть чем. Однако вместе с тем люди, отправлявшиеся все ниже и ниже и возвращавшиеся обратно, рассказывали о необычайных и кровожадных существах, погубивших их товарищей, а также выдвигали теории, что у дыры на самом деле нет дна. И где-то глубоко внизу родилось название – Бездна.
Со временем вокруг отверстия образовался город Ос, построенный потомками первых исследователей Бездны на костях своих отважных предков. Двенадцатилетняя Рико, как и многие дети в городе, сирота, чьи родители сгинули в недрах прожорливой дыры. Дети с ее судьбой вынуждены жить в приютах при гильдиях исследователей Бездны и работать на них, добывая Реликвии. Однако, храня воспоминания о своей легендарной матери, Рико не унывает и, наоборот, хочет как можно скорее набраться опыта и получить белый свисток, олицетворяющий высший ранг среди исследователей.
Но пока она только ученик, вынужденный довольствоваться красным свистком новичка и безопасными вылазками на глубину не больше ста метров от поверхности. Где уж тут станешь великим?.. Однажды, отдавая всю себя работе, Рико чуть было не попадает в пасть грозному монстру, от которого ее спасает странный мальчик – не то робот, не то человек, – прибывший, как считает девочка, с самого низа Бездны. Это событие рождает новую догадку: неужели, каждый день смотря в Бездну, Бездна в ответ пристально глядит на тебя?
©Шикимори
Информационные ссылки: AniDB || World Art || MAL

Качество: HDTVRip
Тип релиза: без хардсаба
Формат видео: MKV
Релиз/Автор рипа: Ohys-Raws
Совместимость с бытовыми плеерами: Нет

Видео: x264, 8 bits, 1280x720, ~18500 kbps, 23.976 fps

Аудио: AAC, 192 kbps, 48.0 KHz, stereo;
Озвучка: MVO, многоголосая, от AniPlague
Аудио 2: AAC, ~200 kbps, 48.0 KHz, stereo

Субтитры: ASS,(надписи);
Субтитры 2: ASS, (полные);ВСЁ В ОДНОМ MKV КОНТЕЙНЕРЕ
Скачать СЭМПЛ:
GeneralUnique ID : 250033586354841378905169259980517839804 (0xBC1AB79447D408AB86A90552E73893BC)Complete name : D:\Раздача\Сквозь бальный зал\[AniPlague] Сквозь бальный зал - Заход.6 - Линия танца.mkvFormat : MatroskaFormat version : Version 4 / Version 2File size : 356 MiBDuration : 24 min 30 sOverall bit rate : 2 032 kb/sMovie name : [AniPlague] Сквозь бальный зал - Заход.6 - Линия танцаEncoded date : UTC 2017-08-16 19:58:23Writing application : mkvmerge v9.6.0 ('Slave To Your Mind') 64bitWriting library : libebml v1.3.4 + libmatroska v1.4.5Attachments : CENSCBK.TTF / HATTEN.TTF / Tomato.ttf / zrnic_cyr.ttf / AnimeAce_v5.ttf

VideoID : 1Format : AVCFormat/Info : Advanced Video CodecFormat profile : Main@L4.1Format settings, CABAC : YesFormat settings, RefFrames : 4 framesCodec ID : V_MPEG4/ISO/AVCDuration : 24 min 30 sBit rate : 1 627 kb/sWidth : 1 280 pixelsHeight : 720 pixelsDisplay aspect ratio : 16:9Frame rate mode : ConstantFrame rate : 23.976 (24000/1001) FPSColor space : YUVChroma subsampling : 4:2:0Bit depth : 8 bitsScan type : ProgressiveBits/(Pixel*Frame) : 0.074Stream size : 285 MiB (80%)Title : Линия танцаWriting library : x264 core 152 r2851+58 429492e t_mod_Custom [8-bit@all X86_64]Encoding settings : cabac=1 / ref=3 / deblock=1:0:0 / analyse=0x1:0x111 / me=hex / subme=7 / psy=1 / fade_compensate=0.00 / psy_rd=1.00:0.00 / mixed_ref=1 / me_range=16 / chroma_me=1 / trellis=1 / 8x8dct=0 / cqm=0 / deadzone=21,11 / fast_pskip=1 / chroma_qp_offset=-2 / threads=12 / lookahead_threads=2 / sliced_threads=0 / nr=0 / decimate=1 / interlaced=0 / bluray_compat=0 / constrained_intra=0 / fgo=0 / bframes=3 / b_pyramid=2 / b_adapt=1 / b_bias=0 / direct=1 / weightb=1 / open_gop=0 / weightp=2 / keyint=240 / keyint_min=1 / scenecut=40 / intra_refresh=0 / rc_lookahead=40 / rc=crf / mbtree=1 / crf=20.0000 / qcomp=0.60 / qpmin=0:0:0 / qpmax=69:69:69 / qpstep=4 / ip_ratio=1.40 / aq=1:1.50 / aq-sensitivity=10.00 / aq-factor=1.00:1.00:1.00 / aq2=0 / aq3=0Default : YesForced : YesColor range : LimitedColor primaries : BT.709Transfer characteristics : BT.709Matrix coefficients : BT.709

Audio #1ID : 2Format : AACFormat/Info : Advanced Audio CodecFormat profile : LCCodec ID : A_AACDuration : 24 min 30 sBit rate : 192 kb/sChannel(s) : 2 channelsChannel positions : Front: L RSampling rate : 48.0 kHzFrame rate : 46.875 FPS (1024 SPF)Compression mode : LossyStream size : 33.7 MiB (9%)Title : AniPlagueLanguage : RussianDefault : YesForced : Yes

Audio #2ID : 3Format : AACFormat/Info : Advanced Audio CodecFormat profile : LCCodec ID : A_AACDuration : 24 min 30 sBit rate : 206 kb/sChannel(s) : 2 channelsChannel positions : Front: L RSampling rate : 48.0 kHzFrame rate : 46.875 FPS (1024 SPF)Compression mode : LossyStream size : 36.2 MiB (10%)Title : OriginalLanguage : JapaneseDefault : NoForced : No

Text #1ID : 4Format : ASSCodec ID : S_TEXT/ASSCodec ID/Info : Advanced Sub Station AlphaDuration : 24 min 19 sBit rate : 126 b/sCount of elements : 155Compression mode : LosslessStream size : 22.4 KiB (0%)Title : FORCEDLanguage : RussianDefault : YesForced : Yes

Text #2ID : 5Format : ASSCodec ID : S_TEXT/ASSCodec ID/Info : Advanced Sub Station AlphaDuration : 24 min 20 sBit rate : 253 b/sCount of elements : 438Compression mode : LosslessStream size : 45.1 KiB (0%)Title : SovetRomanticaLanguage : RussianDefault : NoForced : No
Серия 01 - Город вокруг большой дыры
Серия 02 - Праздник воскрешения
Серия 03 - Отбытие
Серия 04 - Край Бездны
Серия 05 - Пушка-испепелитель
Серия 06 - Лагерь искателей
Серия 07 - Незыблемый Владыка
Серия 08 - Урок выживания
Серия 09 - Великий разлом
Серия 10 - Отрава и Проклятие
Серия 11 - Наначи
Серия 12 - Истинная суть Проклятья
Серия 13 - Бросившие вызов

...
...5425759 - Наличие озвучки
...5452836 - Альтернативная многоголосая озвучка
...5426712 - Наличие озвучки
...5426521 - Альтернативная многоголосая озвучка, 720p


Трекер:  [ 11-Окт-2017 04:01 ]

  

Скачать .torrent

Размер .torrent файла 15 KB


Размер: 5.17 GB
Хэш (hash) релиза: a82a48ee23c9817b7547dd0a9c864c9cd816734c
Подписка на обновления:

Еще никто не оставлял запись к записи скачать торрент Созданный в Бездне Made in Abyss . Будь первым!

!Обратная связь