Скачать через торрент Удивительные Злоключения Флэпджека The Marvelous Misadventures of Flapjack Фильм бесплатно в хорошем качестве torrent

Скачивайте на UnionPeer.org фильмы через торрент без регистрации. Новинки кино в хорошем качестве через торрент. На UnionPeer.org можно скачать через торрент фильмы 2014 и 2015 годов. Самые новые фильмы.

Скачать торрент Удивительные Злоключения Флэпджека The Marvelous Misadventures of Flapjack бесплатно через .torrent фильм мультфильм сериал

Если у вас наблюдаются проблемы со скриншотами, переходом по ссылками, скачиванием торрентов - проблемы в блокировщике рекламы AdBlock. #хорошегоДня!


Статистика раздачи
Размер:  5.64 GB   |    Зарегистрирован:  12 дней   |    .torrent скачан:  2 раза   |   
Раздают:  1  
   
Загрузка...
 
Автор Сообщение

Galfimbul

avatar Galfimbul


Удивительные Злоключения Флэпджека
The Marvelous Misadventures of FlapjackСезон 2Серии: 1-38 из 38
Страна: США
Производство: Cartoon Network
Жанр: Мультфильм, фэнтези, комедия, приключения
Продолжительность: 00:11:00
Года выпуска: 2009-2010
Перевод:

Профессиональный (полное дублирование) | Cartoon Network | кроме эпизодов 5,6,23
Оригинальная звуковая дорожка (English)

Русские субтитры: есть для 5,6,23 эпизодов
Английские субтитры: нетРежиссёр: Туроп Ван Орман / Thurop Van OrmanЭтот необычный мультфильм рассказывает о невероятных морских, и не только, приключениях маленького мальчика Флепджека и его друга Капитана Кастета. Вместе они живут и путешествуют на большой китихе Бабби, которая когда-то давно приютила малыша Флепа и теперь ему вместо мамы. Все вместе они отправляются на опасные поиски острова Карамелии, учатся завоевывать побольше врагов, чтобы стать настоящими путешественниками и спасаются от короля острова Кленового Сиропа. В какие только приключения не попадает веселый Флепджек. Все раздачи мультсериалаКачество: WEB-DL 480p iTunes
Формат: MKV
Видео: 640x480 (4:3) at 24.000 fps, Baseline@L3, ~1400 kbps avg, ~0.190bpp | для 01-14 эпизодов
Видео: 640x360 (16:9) at 24.000 fps, Baseline@L3, ~1400 kbps avg, ~0.260bpp | для 15-38 эпизодов
Аудио:

Russian: 48 kHz, AC3 Dolby Digital, 2 ch, ~192 kbps | Cartoon Network
English: 44.1 kHz, AAC Dolby Digital, 2 ch, ~128 kbps

Субтитры: Russian (by Tanis, *.ass) для эпизодов 5,6,23
GeneralUnique ID : 215841954582153078546721646804623001817 (0xA261A5FAD254297D90CDB52003E188D9)Complete name : \The Marvelous Misadventures of Flapjack - Season 2\The.Marvelous.Misadventures.of.Flapjack.s02e09e10.Fancy.Pants.-.Cuddle.Trouble.WEB-DL.480p.mkvFormat : MatroskaFormat version : Version 4 / Version 2File size : 283 MiBDuration : 23 min 0 sOverall bit rate : 1 722 kb/sMovie name : Fancy Pants / Cuddle TroubleEncoded date : UTC 2017-10-10 08:31:00Writing application : mkvmerge v16.0.0 ('Protest') 64-bitWriting library : libebml v1.3.5 + libmatroska v1.4.8Attachments : poster_ flapjack.jpg

VideoID : 1Format : AVCFormat/Info : Advanced Video CodecFormat profile : Baseline@L3Format settings, CABAC : NoFormat settings, ReFrames : 1 frameCodec ID : V_MPEG4/ISO/AVCDuration : 23 min 0 sBit rate : 1 403 kb/sWidth : 640 pixelsHeight : 480 pixelsDisplay aspect ratio : 4:3Frame rate mode : ConstantFrame rate : 24.000 FPSColor space : YUVChroma subsampling : 4:2:0Bit depth : 8 bitsScan type : ProgressiveBits/(Pixel*Frame) : 0.190Stream size : 231 MiB (81%)Title : The Marvelous Misadventures of FlapjackLanguage : EnglishDefault : YesForced : NoColor range : LimitedColor primaries : BT.601 NTSCTransfer characteristics : BT.709Matrix coefficients : BT.601

Audio #1ID : 2Format : AC-3Format/Info : Audio Coding 3Mode extension : CM (complete main)Format settings, Endianness : BigCodec ID : A_AC3Duration : 23 min 0 sBit rate mode : ConstantBit rate : 192 kb/sChannel(s) : 2 channelsChannel positions : Front: L RSampling rate : 48.0 kHzFrame rate : 31.250 FPS (1536 spf)Bit depth : 16 bitsCompression mode : LossyStream size : 31.6 MiB (11%)Title : [Dub Cartoon Network]Language : RussianDefault : YesForced : No

Audio #2ID : 3Format : AACFormat/Info : Advanced Audio CodecFormat profile : LCCodec ID : A_AACDuration : 23 min 0 sBit rate : 124 kb/sChannel(s) : 2 channelsChannel positions : Front: L RSampling rate : 44.1 kHzFrame rate : 43.066 FPS (1024 spf)Compression mode : LossyStream size : 20.4 MiB (7%)Title : OriginalLanguage : EnglishDefault : NoForced : No

Menu00:00:00.000 : en:Intro00:00:31.541 : en:Fancy Pants00:12:03.916 : en:Cuddle Trouble
(Полноразмерные скриншоты открываются кликом по миниатюре)
01a.Банка-путешественница / Jar She Blows!
01b. За шторами / Behind the Curtain
02a. Закройся / Shut It
02b. Кто кого обокрал? / Who's Moochin' Who?
03a. Над луной / Over the Moon
03b. Перепись / 100 Percensus
04a. Отдай шапку / Off with His Hat
04b. Кастет и его забавная проблема / K'Nuckles and His Hilarious Problem
05a. Классные штаны / Fancy Pants
05b. Обнимашка / Cuddle Trouble
06a. Кто это в зеркале? / Who's That Man in the Mirror?
06b. Несчастливые концы / Unhappy Endings
07a. Капитан Кастет / S.S. K'nuckies
07b. Казанова-Карамель / Candy Casanova
08a. Затонувший корабль / Down with the Ship
08b. Вилли! / Willy!
09a. Брюшко Бабби болит / Bubbie's Tummy Ache
09b. Смотреть за лавкой, не лазить в ящик / Mind the Store, Don't Look in the Drawer
10a. На пенсию! / Please Retire!
10b. Чудо-Юдо / Under the Sea Monster
11a. Вечеринка для Флеппа / Flapjack Goes to a Party
11b. Клал у Клалы / Rye Ruv Roo
12. Отливы / Low Tidings
13a. Домой, капитан / Come Home Cap'n
13b. Быстрейший из живущих / Fastest Man Alive
14a. Ах, ты животное! / Oh You Animal!
14b. Салли-сироп возвращается / The Return of Sally Syrup
15a. Лежебока / Lazy Bones
15b. Два деда и сундук / Two Old Men and a Lock Box
16a. Бум! / Bam!
16b. Затерянный остров / Lost at Land
17a. Один чмок / Just One Kiss
17b. Колодец нежеланий / Wishing Not So Well
18a. Теперь ты в армии / N Is for Navy
18b. Что тебя гложет, капитан? / What's Eatin' Ya, Cap'm?
19a. Буревестные сплетни / I'm So Proud of Me
19b. День без смеха / A Day Without Laughter
20. Руки на стол / All Hands on Deck


Трекер:  [ 10-Окт-2017 22:54 ]

  

Скачать .torrent

Размер .torrent файла 17 KB


Размер: 5.64 GB
Хэш (hash) релиза: 69a1e1e4aac157160455baffbb537c1ed008bd6f
Подписка на обновления:

Еще никто не оставлял запись к записи скачать торрент Удивительные Злоключения Флэпджека The Marvelous Misadventures of Flapjack . Будь первым!

!Обратная связь