Скачать через торрент Марко Поло: загадки великого путешествия на Восток Секретные материалы Марко Поло Фильм бесплатно в хорошем качестве torrent

Скачивайте на UnionPeer.org фильмы через торрент без регистрации. Новинки кино в хорошем качестве через торрент. На UnionPeer.org можно скачать через торрент фильмы 2014 и 2015 годов. Самые новые фильмы.

Скачать торрент Марко Поло: загадки великого путешествия на Восток Секретные материалы Марко Поло бесплатно через .torrent фильм мультфильм сериал

Если у вас наблюдаются проблемы со скриншотами, переходом по ссылками, скачиванием торрентов - проблемы в блокировщике рекламы AdBlock. #хорошегоДня!


Статистика раздачи
Размер:  4.12 GB   |    Зарегистрирован:  10 дней   |    .torrent скачан:  12 раз   |   
Раздают:  1  
   
Загрузка...
 
Автор Сообщение

Galfimbul

avatar Galfimbul


Марко Поло: загадки великого путешествия на Восток / Секретные материалы Марко Поло / The Secret File of Marco Polo

Год выпуска: 2014
Страна: Германия, Франция
Студия: ECO Media TV-Produktion, ZDF Enterprises, Arte
Жанр: Документальный, биография
Продолжительность: 00:50:46
Перевод: Профессиональный (двухголосый закадровый) [Видеофильм-ТВ] / Одноголосый закадровый [SDI Media]
Доп. инфо о переводе: Видеофильм-ТВ
Русские субтитры: нет

Режиссер: Габриэль Венглер / Gabriele Wengler

Описание: XIII век. Молодой Марко Поло из Венеции отправляется в путешествие в Китай. Однако до сих пор многие сомневаются - добрался ли он туда? Сомнения вызывает сам масштаб его приключений, которые, будучи изложенными в "Книге чудес света", сделали её стали бестселлером в Средние века. Сегодня ученые всего мира пытаются найти ответ на вопрос - существуют ли неопровержимые доказательства того, что Марко Поло побывал в Китае? Ученые ищут зацепки в текстах самого Марко Поло, в китайских источниках и с помощью современных технологий. Сам же Марко Поло на смертном одре утверждал, что описал только половину того, что видел в Китае, потому что иначе ему никто бы не поверил...

Доп. информация: Релиз
и

Сэмпл: http://sendfile.su/1368397

Тип релиза: WEB-DL 1080p
Контейнер: MKV

Видео: 1920x1080 at 25.000 fps, MPEG-4 AVC, ~11 Mbps avg
Аудио: Русский: 48 kHz, AC3, 2/0 (L,R) ch, ~192.00 kbps avg |Двухголосый закадровый, Видеофильм-ТВ|
Аудио 2: Русский: 48 kHz, AC3, 2/0 (L,R) ch, ~192.00 kbps avg |Одноголосый закадровый, SDI Media|
Аудио 3: English: 48 kHz, AC3, 2/0 (L,R) ch, ~224.00 kbps avg
Формат субтитров: English, softsub (SRT)
ОбщееУникальный идентификатор : 231259798042851412897716414874866151571 (0xADFB045A01474D66B8E694260217F093)Полное имя : The.Secret.File.of.Marco.Polo.(2014).1080p.WEB-DL.2xRus.Eng_ELITEHD.mkvФормат : MatroskaВерсия формата : Version 4 / Version 2Размер файла : 4,12 ГбайтПродолжительность : 50 м. 45 с.Режим общего битрейта : ПеременныйОбщий поток : 11,6 Мбит/секДата кодирования : UTC 2017-10-08 13:27:37Программа кодирования : mkvmerge v8.1.0 ('Psychedelic Postcard') 32bitБиблиотека кодирования : libebml v1.3.1 + libmatroska v1.4.2

ВидеоИдентификатор : 1Формат : AVCФормат/Информация : Advanced Video CodecПрофиль формата : High@L4Параметр CABAC формата : ДаПараметр ReFrames формата : 4 кадраИдентификатор кодека : V_MPEG4/ISO/AVCПродолжительность : 50 м. 45 с.Вид битрейта : ПеременныйБитрейт : 11,0 Мбит/секМаксимальный битрейт : 15,0 Мбит/секШирина : 1920 пикселейВысота : 1080 пикселейСоотношение сторон : 16:9Режим частоты кадров : ПостоянныйЧастота кадров : 25,000 кадров/секЦветовое пространство : YUVСубдискретизация насыщенности : 4:2:0Битовая глубина : 8 битТип развёртки : ПрогрессивнаяБит/(Пиксели*Кадры) : 0.212Размер потока : 3,90 Гбайт (95%)Default : ДаForced : НетЦветовой диапазон : LimitedОсновные цвета : BT.709Характеристики трансфера : BT.709Коэффициенты матрицы : BT.709

Аудио #1Идентификатор : 2Формат : AC-3Формат/Информация : Audio Coding 3Расширение режима : CM (complete main)Параметр Endianness формата : BigИдентификатор кодека : A_AC3Продолжительность : 50 м. 45 с.Вид битрейта : ПостоянныйБитрейт : 192 Кбит/секКаналы : 2 каналаРасположение каналов : Front: L RЧастота : 48,0 КГцЧастота кадров : 31,250 кадров/сек (1536 spf)Битовая глубина : 16 битМетод сжатия : С потерямиРазмер потока : 69,7 Мбайт (2%)Заголовок : rus 2.0 (VideoFilm-TV)Язык : RussianDefault : ДаForced : Да

Аудио #2Идентификатор : 3Формат : AC-3Формат/Информация : Audio Coding 3Расширение режима : CM (complete main)Параметр Endianness формата : BigИдентификатор кодека : A_AC3Продолжительность : 50 м. 45 с.Вид битрейта : ПостоянныйБитрейт : 192 Кбит/секКаналы : 2 каналаРасположение каналов : Front: L RЧастота : 48,0 КГцЧастота кадров : 31,250 кадров/сек (1536 spf)Битовая глубина : 16 битМетод сжатия : С потерямиРазмер потока : 69,7 Мбайт (2%)Заголовок : rus 2.0 (SDI-Media)Язык : RussianDefault : НетForced : Нет

Аудио #3Идентификатор : 4Формат : E-AC-3Формат/Информация : Enhanced Audio Coding 3Параметр Endianness формата : BigИдентификатор кодека : A_EAC3Продолжительность : 50 м. 45 с.Вид битрейта : ПостоянныйБитрейт : 224 Кбит/секКаналы : 2 каналаРасположение каналов : Front: L RЧастота : 48,0 КГцЧастота кадров : 187,500 кадров/сек (256 spf)Метод сжатия : С потерямиРазмер потока : 81,3 Мбайт (2%)Заголовок : eng 2.0Язык : EnglishDefault : НетForced : Нет

ТекстИдентификатор : 5Формат : UTF-8Идентификатор кодека : S_TEXT/UTF8Идентификатор кодека/Информация : UTF-8 Plain TextПродолжительность : 50 м. 16 с.Битрейт : 104 бит/секCount of elements : 940Размер потока : 38,5 Кбайт (0%)Заголовок : SDHЯзык : EnglishDefault : НетForced : Нет


Трекер:  [ 10-Окт-2017 21:12 ]

  

Скачать .torrent

Размер .torrent файла 21 KB


Размер: 4.12 GB
Хэш (hash) релиза: 9f8a10e244e563b62f00cc5db972d83cda9ef68e
Подписка на обновления:

Еще никто не оставлял запись к записи скачать торрент Марко Поло: загадки великого путешествия на Восток Секретные материалы Марко Поло . Будь первым!

!Обратная связь