Скачать через торрент Ураган: Одиссея ветра Ouragan, lodyssée dun vent Фильм бесплатно в хорошем качестве torrent

Скачивайте на UnionPeer.org фильмы через торрент без регистрации. Новинки кино в хорошем качестве через торрент. На UnionPeer.org можно скачать через торрент фильмы 2014 и 2015 годов. Самые новые фильмы.

Скачать торрент Ураган: Одиссея ветра Ouragan, lodyssée dun vent бесплатно через .torrent фильм мультфильм сериал

Если у вас наблюдаются проблемы со скриншотами, переходом по ссылками, скачиванием торрентов - проблемы в блокировщике рекламы AdBlock. #хорошегоДня!


Статистика раздачи
Размер:  3.55 GB   |    Зарегистрирован:  11 дней   |    .torrent скачан:  11 раз   |   
Раздают:  1  
   
Загрузка...
 
Автор Сообщение

Galfimbul

avatar Galfimbul


Ураган: Одиссея ветра / Ouragan, l'odyssée d'un vent

Год выпуска: 2015
Страна: Франция
Студия: Orange Studio
Жанр: документальный
Продолжительность: 01:18:24
Перевод: Профессиональный (многоголосый закадровый)
Доп. инфо о переводе: студия Позитив
Русские субтитры: нет

Режиссер: Cyril Barbançon, Andy Byatt/Сирил Барбакон,Энди Баятт

Описание: Путь урагана «Люси» от Африки до берегов Америки на протяжении 1000 съемочных дней отслеживала команда французских документалистов и учёных NASA, находясь в самом сердце стихии. Ценой их невероятных усилий был создан уникальный экранный документ и одновременно завораживающее зрелище.

Сэмпл: https://yadi.sk/i/3lgjeBV13Ndfgm

Тип релиза: HDTV 1080i
Контейнер: TS

Видео: AVC, PAL, 1920x1080, 16x9, 5968 Кbps, 25fps
Аудио: Русский, MP2, 2Ch, 48KHz, 192kbps
ОбщееИдентификатор : 1 (0x1)Полное имя : H:\Ураган Одиссея ветра (HDLife2017)_new.tsФормат : MPEG-TSРазмер файла : 3,55 ГбайтПродолжительность : 1 ч. 18 м.Режим общего битрейта : ПеременныйОбщий поток : 6483 Кбит/сек

ВидеоИдентификатор : 323 (0x143)Идентификатор меню : 12103 (0x2F47)Формат : AVCФормат/Информация : Advanced Video CodecПрофиль формата : High@L4Параметр CABAC формата : ДаПараметр ReFrames формата : 4 кадраИдентификатор кодека : 27Продолжительность : 1 ч. 18 м.Битрейт : 5968 Кбит/секШирина : 1920 пикселейВысота : 1080 пикселейСоотношение сторон : 16:9Частота кадров : 25,000 кадров/секСтандарт вещания : ComponentЦветовое пространство : YUVСубдискретизация насыщенности : 4:2:0Битовая глубина : 8 битТип развёртки : ЧересстрочнаяМетод сохранения типа развёртки : Раздельные поляПорядок развёртки : Верхнее поле первоеБит/(Пиксели*Кадры) : 0.115Размер потока : 3,27 Гбайт (92%)Цветовой диапазон : LimitedОсновные цвета : BT.709Характеристики трансфера : BT.709Коэффициенты матрицы : BT.709

АудиоИдентификатор : 403 (0x193)Идентификатор меню : 12103 (0x2F47)Формат : MPEG AudioВерсия формата : Version 1Профиль формата : Layer 2Идентификатор кодека : 3Продолжительность : 1 ч. 18 м.Вид битрейта : ПостоянныйБитрейт : 192 Кбит/секКаналы : 2 каналаЧастота : 48,0 КГцМетод сжатия : С потерямиЗадержка видео : -40 мс.Размер потока : 108 Мбайт (3%)Язык : Russian


Трекер:  [ 10-Окт-2017 17:42 ]

  

Скачать .torrent

Размер .torrent файла 18 KB


Размер: 3.55 GB
Хэш (hash) релиза: 28a82c8a481a79f73f9a57014554b7292a6b3ec5
Подписка на обновления:

Еще никто не оставлял запись к записи скачать торрент Ураган: Одиссея ветра Ouragan, lodyssée dun vent . Будь первым!

!Обратная связь