Скачать через торрент Человек-Паук Marvels Spider-Man Фильм бесплатно в хорошем качестве torrent

Скачивайте на UnionPeer.org фильмы через торрент без регистрации. Новинки кино в хорошем качестве через торрент. На UnionPeer.org можно скачать через торрент фильмы 2014 и 2015 годов. Самые новые фильмы.

Скачать торрент Человек-Паук Marvels Spider-Man бесплатно через .torrent фильм мультфильм сериал

Если у вас наблюдаются проблемы со скриншотами, переходом по ссылками, скачиванием торрентов - проблемы в блокировщике рекламы AdBlock. #хорошегоДня!


Статистика раздачи
Размер:  2.72 GB   |    Зарегистрирован:  12 дней   |    .torrent скачан:  2 раза   |   
Раздают:  1  
   
Загрузка...
 
Автор Сообщение

Galfimbul

avatar Galfimbul


Человек-Паук / Marvel's Spider-Man
Страна: США
Жанр: Фантастика, Приключения
Продолжительность: ~22 мин.
Год выпуска: 2017
Перевод: Любительский (двухголосый закадровый) |Денис Коровин и Татьяна Бердинских|

Режиссёр: Филип Пигнотти, Эрик Радомски / Philip Pignotti, Eric Radomski
Роли озвучивали: Робби Даймонд, Макс Миттельман, Нэнси Лайнари, Алистер ДанканОписание: Увлекательный мультсериал, вышедший на замену «Совершенному Человеку-пауку», является очередной перезагрузкой всемирно известной истории комиксов Marvel о старшекласснике Питере Паркере, получившем уникальные сверхспособности после того, как его укусил радиоактивный паук во время школьной поездки в Оскорп. Будучи смышлёным пареньком, невероятно одарённым в науке, из-за чего многие одноклассники считают его «ботаном», Паркер сразу же принимается разбираться в полученных способностях, стараясь использовать при этом сугубо научный подход. Пользуясь научными познаниями, Питер создает устройство, стреляющее паутиной, а через некоторое время, надев на себя чудной костюм, полностью скрывающий его личность, парень отправляется на поиски славы и всеобщего признания. Однажды, готовясь к поединку против рестлера, Паркер игнорирует мелкого воришку, убегающего от полицейских, считая, что ловить преступников в первую очередь работа полиции, а не его. В тот момент наш герой даже представить себе не мог, что именно этот негодяй в ближайшее время ограбит и убьёт его дядю Бена. Отыскав убийцу и в отчаянии осознав, что именно он мог предотвратить ужасную трагедию, Питер переосмысливает фразу погибшего дяди Бена «большая сила влечёт за собой большую ответственность», после чего решает лично бороться с преступностью.Список серий:
01 Horizon High (Part I) / Школа Горизонт (Часть I)
02 Horizon High (Part II) / Школа Горизонт (Часть II)
03 Osborn Academy / Академия ОсборнКачество: WEB-DL 1080p
Формат: MKV
Видео: MPEG-4 AVC, 1920x1080, 23.976 fps, ~4500 kbps
Аудио 1: Русский, AC3 Dolby Digital, 2 ch, 384 kbps, 48 kHz
Аудио 2: Английский, AC3 Dolby Digital, 6 ch, 384 kbps, 48 kHz
Субтитры: Английские | SubRip

Сэмпл
Общее
Уникальный идентификатор : 214570584461050305118994323627928726377 (0xA16CCA97DE30C0C2BBFE29BCE9302B69)
Полное имя : D:\Stuff\Marvel.Spider-Man.S01.2017.H264.WEB-DL.1080p-SergeZuich\01 Horizon High (Part I).mkv
Формат : Matroska
Версия формата : Version 4 / Version 2
Размер файла : 932 Мбайт
Продолжительность : 22 м.
Общий поток : 5888 Кбит/сек
Дата кодирования : UTC 2017-10-10 06:03:28
Программа кодирования : mkvmerge v8.3.0 ('Over the Horizon') 64bit
Библиотека кодирования : libebml v1.3.1 + libmatroska v1.4.2

Видео
Идентификатор : 1
Формат : AVC
Формат/Информация : Advanced Video Codec
Профиль формата : High@L4
Параметр CABAC формата : Да
Параметр ReFrames формата : 4 кадра
Идентификатор кодека : V_MPEG4/ISO/AVC
Продолжительность : 22 м.
Битрейт : 5003 Кбит/сек
Ширина : 1920 пикселей
Высота : 1080 пикселей
Соотношение сторон : 16:9
Режим частоты кадров : Постоянный
Частота кадров : 23,976 кадра/сек
Цветовое пространство : YUV
Субдискретизация насыщенности : 4:2:0
Битовая глубина : 8 бит
Тип развёртки : Прогрессивная
Бит/(Пиксели*Кадры) : 0.101
Размер потока : 792 Мбайт (85%)
Заголовок : Horizon High (Part I)
Default : Да
Forced : Нет
Цветовой диапазон : Limited
Основные цвета : BT.709
Характеристики трансфера : BT.709
Коэффициенты матрицы : BT.709

Аудио #1
Идентификатор : 2
Формат : AC-3
Формат/Информация : Audio Coding 3
Расширение режима : CM (complete main)
Параметр Endianness формата : Big
Идентификатор кодека : A_AC3
Продолжительность : 22 м.
Вид битрейта : Постоянный
Битрейт : 384 Кбит/сек
Каналы : 2 канала
Расположение каналов : Front: L R
Частота : 48,0 КГц
Метод сжатия : С потерями
Размер потока : 60,8 Мбайт (7%)
Заголовок : DVO [Денис Коровин и Татьяна Бердинских] - AC3 Dolby Digital, 2ch, 384 kbps, 48 kHz
Язык : Russian
Default : Да
Forced : Нет

Аудио #2
Идентификатор : 3
Формат : AC-3
Формат/Информация : Audio Coding 3
Расширение режима : CM (complete main)
Параметр Endianness формата : Big
Идентификатор кодека : A_AC3
Продолжительность : 22 м.
Вид битрейта : Постоянный
Битрейт : 384 Кбит/сек
Каналы : 6 каналов
Расположение каналов : Front: L C R, Side: L R, LFE
Частота : 48,0 КГц
Метод сжатия : С потерями
Размер потока : 60,8 Мбайт (7%)
Заголовок : Original - AC3 Dolby Digital, 6ch, 384 kbps, 48 kHz
Язык : English
Default : Нет
Forced : Нет

Текст
Идентификатор : 4
Формат : UTF-8
Идентификатор кодека : S_TEXT/UTF8
Идентификатор кодека/Информация : UTF-8 Plain Text
Заголовок : Horizon High (Part I)
Язык : English
Default : Нет
Forced : Нет


Трекер:  [ 10-Окт-2017 09:24 ]

  

Скачать .torrent

Размер .torrent файла 14 KB


Размер: 2.72 GB
Хэш (hash) релиза: fb7bb88f6c4b6e84f3a580c652919a77463de054
Подписка на обновления:

Еще никто не оставлял запись к записи скачать торрент Человек-Паук Marvels Spider-Man . Будь первым!

!Обратная связь