Скачать через торрент Его звали Роберт Фильм бесплатно в хорошем качестве torrent

Скачивайте на UnionPeer.org фильмы через торрент без регистрации. Новинки кино в хорошем качестве через торрент. На UnionPeer.org можно скачать через торрент фильмы 2014 и 2015 годов. Самые новые фильмы.

Скачать торрент Его звали Роберт бесплатно через .torrent фильм мультфильм сериал

Если у вас наблюдаются проблемы со скриншотами, переходом по ссылками, скачиванием торрентов - проблемы в блокировщике рекламы AdBlock. #хорошегоДня!


Статистика раздачи
Размер:  1.37 GB   |    Зарегистрирован:  7 дней   |    .torrent скачан:  22 раза   |   
Раздают:  1  
   
Загрузка...
 
Автор Сообщение

Galfimbul

avatar Galfimbul


Его звали Роберт

Жанр: Фантастическая комедия
Год выпуска: 1967
Продолжительность: 01:19:22

Режиссёр: Илья Ольшвангер

В ролях: Олег Стриженов, Марианна Вертинская, Михаил Пуговкин, Алексей Драницын, Нина Мамаева, Марсель Марсо, Николай Макеев, Владимир Поболь, Игорь Ефимов, Пантелеймон Крымов

Описание: Этот фильм не ходил в "лидерах проката", но в конце 60-х годов в СССР его хорошо знали и любили многие. Молодой ученый, руководитель лаборатории Сергей Сергеевич, создает биохимическую модель человека. Робота «РБ-235», точную копию своего создателя, называют Робертом и ради эксперимента выпускают в жизнь, к людям…

Доп. информация:
Автор релиза -
Источник аудио и видео для рипа - HDTV 1080i TS - моя запись с канала Первый HD

Сэмпл: https://yadi.sk/i/e3eHEefH3Nc3Zp

Рекламы нет!

Качество видео: HDTVRip
Формат видео: AVI

Видео: XviD, 720x320 (2,25:1), 25.000 fps, 2262 kbps, 0.393 bit/pixel
Аудио: Русский AC3, 48000 Гц, 2ch, 192 kbps
ОбщееПолное имя : D:\Его.звали.Роберт.1967.HDTVRip-ylnian.aviФормат : AVIФормат/Информация : Audio Video InterleaveРазмер файла : 1,37 ГбайтПродолжительность : 1 ч. 19 м.Общий поток : 2463 Кбит/секПрограмма кодирования : VirtualDubMod 1.5.10.2 (build 2540/release)Библиотека кодирования : VirtualDubMod build 2540/release

ВидеоИдентификатор : 0Формат : MPEG-4 VisualПрофиль формата : Advanced Simple@L5Параметр BVOP формата : 1Параметр QPel формата : НетПараметр GMC формата : Без точки переходаПараметр матрицы формата : Default (MPEG)Идентификатор кодека : XVIDИдентификатор кодека/Подсказка : XviDПродолжительность : 1 ч. 19 м.Битрейт : 2262 Кбит/секШирина : 720 пикселейВысота : 320 пикселейСоотношение сторон : 2,25:1Частота кадров : 25,000 кадров/секЦветовое пространство : YUVСубдискретизация насыщенности : 4:2:0Битовая глубина : 8 битТип развёртки : ПрогрессивнаяМетод сжатия : С потерямиБит/(Пиксели*Кадры) : 0.393Размер потока : 1,25 Гбайт (92%)Библиотека кодирования : XviD 67

АудиоИдентификатор : 1Формат : AC-3Формат/Информация : Audio Coding 3Параметр Endianness формата : BigИдентификатор кодека : 2000Продолжительность : 1 ч. 19 м.Вид битрейта : ПостоянныйБитрейт : 192 Кбит/секКаналы : 2 каналаРасположение каналов : Front: L RЧастота : 48,0 КГцЧастота кадров : 31,250 кадров/сек (1536 spf)Битовая глубина : 16 битМетод сжатия : С потерямиРазмер потока : 109 Мбайт (8%)Выравнивание : Разделение по промежуткамПродолжительность промежутка : 40 мс. (1,00 видеокадр)Время предзагрузки промежутка : 500 мс.ServiceKind/String : Complete Main
Сравнение скриншотов с DVDRip-ом - http://screenshotcomparison.com/comparison/120151


Трекер:  [ 09-Окт-2017 19:54 ]

  

Скачать .torrent

Размер .torrent файла 14 KB


Размер: 1.37 GB
Хэш (hash) релиза: 4dc3c1c75ec31857f2814f216d86abd3b6547b15
Подписка на обновления:

Еще никто не оставлял запись к записи скачать торрент Его звали Роберт . Будь первым!

!Обратная связь