Скачать через торрент Брюс Ли – человек легенда Bruce Lee, the Legend Фильм бесплатно в хорошем качестве torrent

Скачивайте на UnionPeer.org фильмы через торрент без регистрации. Новинки кино в хорошем качестве через торрент. На UnionPeer.org можно скачать через торрент фильмы 2014 и 2015 годов. Самые новые фильмы.

Скачать торрент Брюс Ли – человек легенда Bruce Lee, the Legend бесплатно через .torrent фильм мультфильм сериал

Если у вас наблюдаются проблемы со скриншотами, переходом по ссылками, скачиванием торрентов - проблемы в блокировщике рекламы AdBlock. #хорошегоДня!


Статистика раздачи
Размер:  1.55 GB   |    Зарегистрирован:  12 дней   |    .torrent скачан:  16 раз   |   
Раздают:  1  
   
Загрузка...
 
Автор Сообщение

Galfimbul

avatar Galfimbul


Брюс Ли – человек легенда / Bruce Lee, the Legend

Дата/Год выпуска: 1984
Страна: Гонконг
Жанр: документальный
Продолжительность: 01:25:46
Перевод: Авторский (одноголосый закадровый)
Доп. инфо о переводе: Смирнов А. Е.
Русские субтитры: нет

Оригинальная аудиодорожка: английский
Режиссер: Леонард Хо/Leonard Ho

Описание: Человек-Легенда. Где он родился, кто были его родители, жена и дети. Раритетные кадры о его первых шагах и лучших поединках в кинематографе.

Создание его собственного стиля Кунг Фу «Джет Кон До» и тайна его загадочной смерти, полная домыслов и предположений.

Доп. информация: Перевод Смирнова А. Е. из далекой эпохи VHS

Сэмпл: http://sendfile.su/1362471

качество: VHSRip
формат: AVI
Видео: DivX 5 720x544 29.97fps 2276kbps
Аудио: Rus, Dolby AC3 48000Hz stereo 192kbps перевод Смирнов А. Е.
Аудио 2: Eng, MP3 48000Hz stereo 104kbps
GeneralComplete name : C:\Users\1586\Downloads\Bruce Lee, the Legend.aviFormat : AVIFormat/Info : Audio Video InterleaveFile size : 1.55 GiBDuration : 1 h 25 minOverall bit rate mode : VariableOverall bit rate : 2 591 kb/sWriting application : VirtualDubMod 1.5.10.2 (build 2540/release)Writing library : VirtualDubMod build 2540/release

VideoID : 0Format : MPEG-4 VisualFormat settings, BVOP : 1Format settings, QPel : NoFormat settings, GMC : No warppointsFormat settings, Matrix : Default (H.263)Muxing mode : Packed bitstreamCodec ID : DX50Codec ID/Hint : DivX 5Duration : 1 h 25 minBit rate : 2 277 kb/sNominal bit rate : 7 800 kb/sWidth : 720 pixelsHeight : 544 pixelsDisplay aspect ratio : 4:3Frame rate : 29.970 (30000/1001) FPSColor space : YUVChroma subsampling : 4:2:0Bit depth : 8 bitsScan type : ProgressiveCompression mode : LossyBits/(Pixel*Frame) : 0.194Stream size : 1.36 GiB (88%)Writing library : DivX 6.6.1.4

Audio #1ID : 1Format : AC-3Format/Info : Audio Coding 3Format settings, Endianness : BigCodec ID : 2000Duration : 1 h 25 minBit rate mode : ConstantBit rate : 192 kb/sChannel(s) : 2 channelsChannel positions : Front: L RSampling rate : 48.0 kHzFrame rate : 31.250 FPS (1536 spf)Bit depth : 16 bitsCompression mode : LossyStream size : 118 MiB (7%)Alignment : Split accross interleavesInterleave, duration : 33 ms (1.00 video frame)Interleave, preload duration : 500 msLanguage : RussianService kind : Complete Main

Audio #2ID : 2Format : MPEG AudioFormat version : Version 1Format profile : Layer 3Mode : Joint stereoCodec ID : 55Codec ID/Hint : MP3Duration : 1 h 25 minBit rate mode : VariableBit rate : 104 kb/sNominal bit rate : 128 kb/sChannel(s) : 2 channelsSampling rate : 48.0 kHzCompression mode : LossyStream size : 64.0 MiB (4%)Alignment : Split accross interleavesInterleave, duration : 33 ms (1.00 video frame)Interleave, preload duration : 500 msWriting library : LAME3.97Encoding settings : -m j -V 4 -q 2 -lowpass 17 --abr 128Language : English


Трекер:  [ 09-Окт-2017 19:12 ]

  

Скачать .torrent

Размер .torrent файла 16 KB


Размер: 1.55 GB
Хэш (hash) релиза: 830971c3f0ffd66b71896be81181bcaea1dc96b9
Подписка на обновления:

Еще никто не оставлял запись к записи скачать торрент Брюс Ли – человек легенда Bruce Lee, the Legend . Будь первым!

!Обратная связь