Скачать через торрент Собачьи истории: Тибор спешит на помощь Фильм бесплатно в хорошем качестве torrent

Скачивайте на UnionPeer.org фильмы через торрент без регистрации. Новинки кино в хорошем качестве через торрент. На UnionPeer.org можно скачать через торрент фильмы 2014 и 2015 годов. Самые новые фильмы.

Скачать торрент Собачьи истории: Тибор спешит на помощь бесплатно через .torrent фильм мультфильм сериал

Если у вас наблюдаются проблемы со скриншотами, переходом по ссылками, скачиванием торрентов - проблемы в блокировщике рекламы AdBlock. #хорошегоДня!


Статистика раздачи
Размер:  2.58 GB   |    Зарегистрирован:  12 дней   |    .torrent скачан:  4 раза   |   
Раздают:  1  
   
Загрузка...
 
Автор Сообщение

Galfimbul

avatar Galfimbul


Собачьи истории: Тибор спешит на помощь (1 сезон, 8 серий из 8) / Dog tales: Tibor to the rescue

Дата/Год выпуска: 2016
Страна: США
Жанр: Документальные фильмы
Продолжительность: ~ 00:20:56 серия

Перевод: Студийный (одноголосый закадровый)
Доп. инфо о переводе: SDIMedia

Русские субтитры: нет

Режиссер: Ричард Бовлер / Richard Bowler

Телеканал: Viasat Nature

Описание: Этот материал для тех, кому нравятся фильмы о работе Цезаря Миллана - дрессировщика проблемных собак, о котором выпущено несколько фильмов с общим названием "переводчик с собачьего". В этих фильмах показан аналогичный дрессировщик, работающий в городе Палм Бич штат Флорида. Солнце, песок и балованные собаки. Тибор Фейгель, раньше работавший моделью, теперь стал собачьим дрессировщиком, который учит невоспитанных собак хорошим манерам

Доп. информация: от 6 лет

Сэмпл: https://www.sendspace.com/file/rex9vx

качество: SATRip
формат: AVI
Видео: XviD, 720 х 400 пикс, ~ 2000 Кбит/сек, 25,000 кадр/сек, 0.279 Бит/(Пиксели*Кадры)
Аудио: MP3, 192 Кбит/сек, 48,0 КГц, 2 канала
1серия Приручение Саманты
Задача Тибор в этом выпуске - приручить Саманту, английского мастифа весом почти 60 кг и дурным характером. Она бросается на людей на улице и облаивает весь дом.
2серия Дрессировка Расти
Тибора просят помочь Расти, псу, которого приходится кормить с рук. Кроме того, он не ходит в собачий парк,потому что от страха становится агрессивен.
3серия Победа Бруно
Тибора просят помочь Бруно, который прыгает через заборы и грызёт обувь. Хозяин чувствует. что не может его выдрессировать.
4серия Тревога и одиночество
Тибору нужно помочь Чарли, молодому лабродудлю, у которого проблемы с одиночеством, тревожностью и купанием.
5серия Два француза
У Тибора двойные проблемы с Дизелем и Броди, двумя французскими бульдогами, шалости которых вышли из-под контроля и вызывают серьёзные раздоры между братом и сестрой
6серия Удача кончилась?
Тибора вызвали позаботиться о Лаки, плуте, который грызёт мебель, ест обувь и даже не догадывается, что теперь ему это с лап не сойдёт!
7серия Репеллент от собак
Тибор должен помочь американскому бульдогу Хучу с дурным характером, из-за его злобного грава к его хозяину давно никто не заходит в гости. Ещё он помогает Монике взять собаку из приюта
8серия Святой шнауцер
Что делать, если дом захватили два огромных шнауцера - конечно, звонить Тибору
для всех серий данные аналогичные.ОбщееПолное имя : C:\фильмы\02 возможно для раздачи\Тибор спешит на помощь 8 серий 2016год\Тибор спешит на помощь 2016год 1сезон 8серий\1серия Тибор спешит на помощь.aviФормат : AVIФормат/Информация : Audio Video InterleaveРазмер файла : 331 МбайтПродолжительность : 20 м.Общий поток : 2207 Кбит/сек

ВидеоИдентификатор : 0Формат : MPEG-4 VisualПрофиль формата : Advanced Simple@L4Параметр BVOP формата : НетПараметр QPel формата : НетПараметр GMC формата : Без точки переходаПараметр матрицы формата : Default (H.263)Идентификатор кодека : XVIDИдентификатор кодека/Подсказка : XviDПродолжительность : 20 м.Битрейт : 2005 Кбит/секШирина : 720 пикселейВысота : 400 пикселейСоотношение сторон : 16:9Частота кадров : 25,000 кадров/секЦветовое пространство : YUVСубдискретизация насыщенности : 4:2:0Битовая глубина : 8 битТип развёртки : ПрогрессивнаяМетод сжатия : С потерямиБит/(Пиксели*Кадры) : 0.279Размер потока : 300 Мбайт (91%)

АудиоИдентификатор : 1Формат : MPEG AudioВерсия формата : Version 1Профиль формата : Layer 3Идентификатор кодека : 55Идентификатор кодека/Подсказка : MP3Продолжительность : 20 м.Продолжительность оригинала : 20 м.Вид битрейта : ПостоянныйБитрейт : 192 Кбит/секКаналы : 2 каналаЧастота : 48,0 КГцМетод сжатия : С потерямиРазмер потока : 28,8 Мбайт (9%)Выравнивание : Соединение по промежуткамПродолжительность промежутка : 40 мс. (1,00 видеокадр)
про переводчика с собачьего, например:
...3066855
...3285390
...3689717
Телеканал: VIASAT NATURE
форум "фильмы о собаках и волках"
...1144862


Трекер:  [ 09-Окт-2017 18:12 ]

  

Скачать .torrent

Размер .torrent файла 14 KB


Размер: 2.58 GB
Хэш (hash) релиза: 6e89d209bf7b4ae72ee9a34fc9e145e084932cf8
Подписка на обновления:

Еще никто не оставлял запись к записи скачать торрент Собачьи истории: Тибор спешит на помощь . Будь первым!

!Обратная связь