Скачать через торрент XX век. Самолет из Кабула, 1987 Фильм бесплатно в хорошем качестве torrent

Скачивайте на UnionPeer.org фильмы через торрент без регистрации. Новинки кино в хорошем качестве через торрент. На UnionPeer.org можно скачать через торрент фильмы 2014 и 2015 годов. Самые новые фильмы.

Скачать торрент XX век. Самолет из Кабула, 1987 бесплатно через .torrent фильм мультфильм сериал

Если у вас наблюдаются проблемы со скриншотами, переходом по ссылками, скачиванием торрентов - проблемы в блокировщике рекламы AdBlock. #хорошегоДня!


Статистика раздачи
Размер:  1.21 GB   |    Зарегистрирован:  11 дней   |    .torrent скачан:  8 раз   |   
Раздают:  2  
   
Загрузка...
 
Автор Сообщение

Galfimbul

avatar Galfimbul


XX век. Самолет из Кабула, 1987

Год выпуска: 2017
Страна: Россия
Жанр: Документальный
Продолжительность: 00:58:14
Перевод: Не требуется
Режиссер: Владимир Мукусев

Телеканал: ВГТРК/Россия-Культура
Описание: Вступительное слово говорит Владимир Мукусев - советский и российский журналист и политолог.
Этот фильм об Афганской войне в эфир Центрального телевидения прошёл с трудом, сильно урезанный цензурой, и больше его не показывали. От общественности тщательно скрывалось, что советские воины, выполняя интернациональный долг по велению правительства и партии, погибали на афганской земле.
Появился термин «груз-200», это были цинковые гробы, часто безымянных солдат, которые отправляли на родину, в СССР. Но на этой войне бывали и чудеса, как это произошло с Дмитрием Корховым. Его уже считали погибшим, об этом сообщали в репортажах, но он уцелел и вернулся домой.

Доп. информация: Запись потока *.ts с наземного цифрового телеканала «Россия-Культура», обрезка программой VideoReDo.

Качество: DVB
Контейнер: TS
Видео кодек: H.264
Аудио кодек: MP2
Видео: AVC, 720Х576 (15:11), 2644 kbps, 25 fps
Аудио: MP2, 192 Kbps, 48.0 kHz, 2 ch
GeneralID : 1 (0x1)Complete name : J:\Video\Documentary\XX век. Самолет из Кабула, 1987 (2017).tsFormat : MPEG-TSFile size : 1.21 GiBDuration : 58 min 14 sOverall bit rate mode : VariableOverall bit rate : 2 986 kb/s

VideoID : 256 (0x100)Menu ID : 1 (0x1)Format : AVCFormat/Info : Advanced Video CodecFormat profile : Main@L3Format settings, CABAC : YesFormat settings, ReFrames : 3 framesFormat settings, GOP : M=4, N=28Codec ID : 27Duration : 58 min 13 sBit rate : 2 644 kb/sWidth : 720 pixelsHeight : 576 pixelsDisplay aspect ratio : 4:3Frame rate : 25.000 FPSStandard : ComponentColor space : YUVChroma subsampling : 4:2:0Bit depth : 8 bitsScan type : InterlacedScan type, store method : Separated fieldsScan order : Top Field FirstBits/(Pixel*Frame) : 0.255Stream size : 1.08 GiB (89%)Color range : LimitedColor primaries : BT.601 PALTransfer characteristics : BT.470 System B, BT.470 System GMatrix coefficients : BT.601

AudioID : 257 (0x101)Menu ID : 1 (0x1)Format : MPEG AudioFormat version : Version 1Format profile : Layer 2Codec ID : 3Duration : 58 min 13 sBit rate mode : ConstantBit rate : 192 kb/sChannel(s) : 2 channelsSampling rate : 48.0 kHzCompression mode : LossyStream size : 80.0 MiB (6%)Language : English


Трекер:  [ 09-Окт-2017 15:12 ]

  

Скачать .torrent

Размер .torrent файла 12 KB


Размер: 1.21 GB
Хэш (hash) релиза: 919cf7a1199ed7f3fe2f91fba45702d8f36d5429
Подписка на обновления:

Еще никто не оставлял запись к записи скачать торрент XX век. Самолет из Кабула, 1987 . Будь первым!

!Обратная связь