Скачать через торрент Проект Гризли Фильм бесплатно в хорошем качестве torrent

Скачивайте на UnionPeer.org фильмы через торрент без регистрации. Новинки кино в хорошем качестве через торрент. На UnionPeer.org можно скачать через торрент фильмы 2014 и 2015 годов. Самые новые фильмы.

Скачать торрент Проект Гризли бесплатно через .torrent фильм мультфильм сериал

Если у вас наблюдаются проблемы со скриншотами, переходом по ссылками, скачиванием торрентов - проблемы в блокировщике рекламы AdBlock. #хорошегоДня!


Статистика раздачи
Размер:  3.21 GB   |    Зарегистрирован:  12 дней   |    .torrent скачан:  4 раза   |   
Раздают:  1   Качают:  1  
   
Загрузка...
 
Автор Сообщение

Galfimbul

avatar Galfimbul


Проект Гризли (6 серий из 6) / Project Grizzly

Дата/Год выпуска: 2016
Страна: США
Жанр: Документальный
Продолжительность: 6 х ~ 00:43:00
Перевод: Студийный (одноголосый закадровый)
Русские субтитры: нет
Режиссер: Санди Халлер / Sandy Haller
Телеканал: Анимал планет

Описание: Джефф Уотсон по прозвищу "Человек-медведь" уже 27 лет ухаживает за медведями в зоопарке и все эти годы он мечтает о возвращении величественных животных в дикую природу. Теперь он попытается обучить навыкам выживания двух взрослых бурых медведей по кличке Боб и Скрич, выросших в неволе, и выпустить их на свободу в глубинке на юге штата Индиана. Ему предстоит провести несколько месяцев в безлюдных лесах наедине с трехсоткилограммовыми гризли, учить их находить пропитание, охотиться, ловить рыбу и защищать себя. Джефф готов проститься с друзьями и семьей и подвергнуть себя риску, чтобы осуществить свою давнюю мечту: вернуть медведей в их естественную среду обитания. Это уникальный эксперимент и от его результатов возможно появление новой методики возвращения животных в естественную среду обитания.

Доп. информация:
IMDB 7.6
от 12 лет

Сэмпл: https://www.sendspace.com/file/ndi0yk

качество: SATRip
формат: AVI
Видео: XviD, 720 х 400 пикс, ~ 1600 Кбит/сек, 25,0 кадр/сек, 0.222 Бит/(Пиксели*Кадры)
Аудио: MP3, 160 Кбит/сек, 48,0 КГц, 2 канала
Серии 1 - 6.
1серия. Начало
Человек-медведь Джефф Уотсон пытается вернуть двух спасённых медведей в дикую природу. Сумеет ли он обучить их навыкам, необходимым для выживания
2серия. Урок рыбалки
Джефф мечтает вернуть Боба и Скрича в дикую природу. Но научить их ловить рыбу не так просто, как казалось на первый взгляд, и, похоже, Боб не справляется
3серия. А как же Боб?
Джефф обучает медведей добывать пищу в лесу. Когда Боб ранит его руку, то Джефф отказывается от медицинской помощи. Джефф вынужден признать, что медведям будет сложно покинуть гнездо
4серия. Медведи в бегах
Нетрадиционные способы обучения медведей охоте не оправдывают надежд Джеффа, но он обнаруживает, что, возможно, охотничьи инстинкты всё же пробуждаются
5серия. Медведи-подростки
Джефф доволен тем, как Боб и Скрич осваивают навыки самостоятельной добычи пищи. Он учит их готовиться к зимней спячке. Медведи начинают отстаивать территорию.
6серия. Время отпустить
Проект возвращения медведей в дикую природу завершается и подопечных остаётся научить избегать общества людей. Готовы ли Боб И Скрич к самостоятельной жизни?
ОбщееПолное имя : C:\фильмы\02 возможно для раздачи\Проект Гризли 2016г 6серий\Проект Гризли 2016г\1серия.aviФормат : AVIФормат/Информация : Audio Video InterleaveРазмер файла : 559 МбайтПродолжительность : 44 м.Общий поток : 1768 Кбит/сек

ВидеоИдентификатор : 0Формат : MPEG-4 VisualПрофиль формата : Advanced Simple@L4Параметр BVOP формата : НетПараметр QPel формата : НетПараметр GMC формата : Без точки переходаПараметр матрицы формата : Default (H.263)Идентификатор кодека : XVIDИдентификатор кодека/Подсказка : XviDПродолжительность : 44 м.Битрейт : 1598 Кбит/секШирина : 720 пикселейВысота : 400 пикселейСоотношение сторон : 16:9Частота кадров : 25,000 кадров/секЦветовое пространство : YUVСубдискретизация насыщенности : 4:2:0Битовая глубина : 8 битТип развёртки : ПрогрессивнаяМетод сжатия : С потерямиБит/(Пиксели*Кадры) : 0.222Размер потока : 505 Мбайт (90%)

АудиоИдентификатор : 1Формат : MPEG AudioВерсия формата : Version 1Профиль формата : Layer 3Идентификатор кодека : 55Идентификатор кодека/Подсказка : MP3Продолжительность : 44 м.Вид битрейта : ПостоянныйБитрейт : 160 Кбит/секКаналы : 2 каналаЧастота : 48,0 КГцМетод сжатия : С потерямиРазмер потока : 50,6 Мбайт (9%)Выравнивание : Соединение по промежуткамПродолжительность промежутка : 40 мс. (1,00 видеокадр)
пока нет
Телеканал: Анимал планет


Трекер:  [ 09-Окт-2017 15:12 ]

  

Скачать .torrent

Размер .torrent файла 16 KB


Размер: 3.21 GB
Хэш (hash) релиза: 4c4d10024d15324f849dfbb51074fae2564a6108
Подписка на обновления:

Еще никто не оставлял запись к записи скачать торрент Проект Гризли . Будь первым!

!Обратная связь